[هروب اضطراري][2017][1080p][Web-DL]

3.39 GB |
التحميل : 139 |
التراكر : داخلي |
7 / 0 ( 92) |
05/01/2020

الشبح الاسود
xrescom@arabp2p.com
الرتبه Seeder
المرفوعات: 58
النقاط: 371,973.50
تاريخ التسجيل: 20/04/2013
xrescom غير متصل





هروب اضطراري
اخراج: أحمد خالد موسى
تمثيل:  أحمد السقا , غادة عادل , أمير كرارة , فتحي عبدالوهاب , مصطفى خاطر , أحمد العوضي

[فيلم][تورنت][تحميل][هروب اضطراري][2017][1080p][Web-DL] 1 arabp2p.com
 الفيلم المصري هروب اضطراري ( 2017 )
نسخة خام غير معدلة قمت بسحبها من موقع netflix
اخراج:  أحمد خالد موسى
تمثيل:   أحمد السقا , غادة عادل , أمير كرارة , فتحي عبدالوهاب , مصطفى خاطر , أحمد العوضي
تقع جريمة قتل يروح ضحيتها رجل أعمال يُدعى يحيى زكريا (محمد فراج) ويُتهم فيها أربعة أشخاص وهم أدهم  (أحمد السقا) ومصطفى (أمير كرارة) ويوسف (مصطفى خاطر) وندى (غادة عادل)، وتبدأ الأحداث في التصاعد حيث يحاول أربعتهم التكاتف معًا من أجل إثبات براءتهم من التهمة المنسوبة إليهم.

[فيلم][تورنت][تحميل][هروب اضطراري][2017][1080p][Web-DL] 2 arabp2p.com

[فيلم][تورنت][تحميل][هروب اضطراري][2017][1080p][Web-DL] 3 arabp2p.com
((معلومات الاصدار))

Code
Format                      : MPEG-4
Format profile              : Base Media
Codec ID                    : isom (isom/iso2/avc1/mp41)
File size                   : 3.38 GiB
Duration                    : 1 h 44 min
Overall bit rate            : 4 632 kb/s
Writing application         : FlixGrab Plus

Video
ID                          : 1
Format                      : AVC
Format/Info                 : Advanced Video Codec
Format profile              : High@L4
Format settings             : CABAC / 3 Ref Frames
Format settings, CABAC      : Yes
Format settings, ReFrames   : 3 frames
Codec ID                    : avc1
Codec ID/Info               : Advanced Video Coding
Duration                    : 1 h 44 min
Bit rate                    : 4 499 kb/s
Width                       : 1 920 pixels
Height                      : 1 080 pixels
Display aspect ratio        : 16:9
Frame rate mode             : Constant
Frame rate                  : 25.000 FPS
Color space                 : YUV
Chroma subsampling          : 4:2:0
Bit depth                   : 8 bits
Scan type                   : Progressive
Bits/(Pixel*Frame)          : 0.087
Stream size                 : 3.29 GiB (97%)
Codec configuration box     : avcC

Audio
ID                          : 2
Format                      : E-AC-3
Format/Info                 : Enhanced Audio Coding 3
Codec ID                    : ec-3
Duration                    : 1 h 44 min
Bit rate mode               : Constant
Bit rate                    : 128 kb/s
Channel(s)                  : 2 channels
Channel positions           : Front: L R
Sampling rate               : 48.0 kHz
Frame rate                  : 187.500 FPS (256 SPF)
Bit depth                   : 16 bits
Compression mode            : Lossy
Stream size                 : 95.8 MiB (3%)
Language                    : Arabic
Service kind                : Complete Main
Default                     : Yes
Alternate group             : 1



[فيلم][تورنت][تحميل][هروب اضطراري][2017][1080p][Web-DL] 4 arabp2p.com
((البوستر))
[فيلم][تورنت][تحميل][هروب اضطراري][2017][1080p][Web-DL] 5 arabp2p.com

[فيلم][تورنت][تحميل][هروب اضطراري][2017][1080p][Web-DL] 6 arabp2p.com
((الممثلون))
[فيلم][تورنت][تحميل][هروب اضطراري][2017][1080p][Web-DL] 7 arabp2p.com

[فيلم][تورنت][تحميل][هروب اضطراري][2017][1080p][Web-DL] 8 arabp2p.com
((لقطات من المحتوى))
[فيلم][تورنت][تحميل][هروب اضطراري][2017][1080p][Web-DL] 9 arabp2p.com
[فيلم][تورنت][تحميل][هروب اضطراري][2017][1080p][Web-DL] 10 arabp2p.com
[فيلم][تورنت][تحميل][هروب اضطراري][2017][1080p][Web-DL] 11 arabp2p.com
[فيلم][تورنت][تحميل][هروب اضطراري][2017][1080p][Web-DL] 12 arabp2p.com
[فيلم][تورنت][تحميل][هروب اضطراري][2017][1080p][Web-DL] 13 arabp2p.com
[فيلم][تورنت][تحميل][هروب اضطراري][2017][1080p][Web-DL] 14 arabp2p.com
[فيلم][تورنت][تحميل][هروب اضطراري][2017][1080p][Web-DL] 15 arabp2p.com
[فيلم][تورنت][تحميل][هروب اضطراري][2017][1080p][Web-DL] 16 arabp2p.com

[فيلم][تورنت][تحميل][هروب اضطراري][2017][1080p][Web-DL] 17 arabp2p.com
((مشاهدة ممتعه))
13 files