[رغدة متوحشة][2018][1080p][Web-DL]

3.36 GB |
التحميل : 142 |
التراكر : داخلي |
7 / 1 ( 81) |
29/12/2019

الشبح الاسود
xrescom@arabp2p.com
الرتبه Seeder
المرفوعات: 58
النقاط: 291,514.00
تاريخ التسجيل: 20/04/2013
xrescom غير متصل





رغدة متوحشة
اخراج: محمود كريم
تمثيل:  رامز جلال , ريهام حجاج , بيومي فؤاد , محمد ثروت , إنتصار , أحمد فتحي

[فيلم][تورنت][تحميل][رغدة متوحشة][2018][1080p][Web-DL] 1 arabp2p.com
 الفيلم المصري رغدة متوحشة ( 2018 )
نسخة خام غير معدلة قمت بسحبها من موقع netflix
اخراج: محمود كريم
تمثيل: رامز جلال , ريهام حجاج , بيومي فؤاد , محمد ثروت , إنتصار , أحمد فتحي
تدور أحداث الفيلم حول الشاب (إسماعيل) الذي يعمل بأحد  مراكز التجميل، وبالصدفة يكتشف أن أحد مخرجي الإعلانات يبحث عن وجه جديد، فيحول نفسه لفتاة من أجل تقديم الإعلان وبالفعل ينجح فى ذلك قبل أن ينكشف أمره ويتعرض للعديد من المواقف الكوميدية، مثل التحرش وغيرها من المعاناة التي تواجه المرأة في مجتمعنا.

[فيلم][تورنت][تحميل][رغدة متوحشة][2018][1080p][Web-DL] 2 arabp2p.com

[فيلم][تورنت][تحميل][رغدة متوحشة][2018][1080p][Web-DL] 3 arabp2p.com
((معلومات الاصدار))

Code
Format                      : MPEG-4
Format profile              : Base Media
Codec ID                    : isom (isom/iso2/avc1/mp41)
File size                   : 3.35 GiB
Duration                    : 1 h 32 min
Overall bit rate            : 5 162 kb/s
Writing application         : FlixGrab Plus

Video
ID                          : 1
Format                      : AVC
Format/Info                 : Advanced Video Codec
Format profile              : High@L4
Format settings             : CABAC / 3 Ref Frames
Format settings, CABAC      : Yes
Format settings, ReFrames   : 3 frames
Codec ID                    : avc1
Codec ID/Info               : Advanced Video Coding
Duration                    : 1 h 32 min
Bit rate                    : 5 061 kb/s
Width                       : 1 920 pixels
Height                      : 1 080 pixels
Display aspect ratio        : 16:9
Frame rate mode             : Constant
Frame rate                  : 25.000 FPS
Color space                 : YUV
Chroma subsampling          : 4:2:0
Bit depth                   : 8 bits
Scan type                   : Progressive
Bits/(Pixel*Frame)          : 0.098
Stream size                 : 3.28 GiB (98%)
Codec configuration box     : avcC

Audio
ID                          : 2
Format                      : AAC
Format/Info                 : Advanced Audio Codec
Format profile              : HE-AAC / LC
Format settings             : Explicit
Codec ID                    : mp4a-40-2
Duration                    : 1 h 32 min
Bit rate mode               : Constant
Bit rate                    : 96.0 kb/s
Channel(s)                  : 2 channels
Channel positions           : Front: L R
Sampling rate               : 48.0 kHz / 24.0 kHz
Frame rate                  : 23.438 FPS (1024 SPF)
Compression mode            : Lossy
Stream size                 : 63.8 MiB (2%)
Language                    : Arabic
Default                     : Yes
Alternate group             : 1



[فيلم][تورنت][تحميل][رغدة متوحشة][2018][1080p][Web-DL] 4 arabp2p.com
((البوستر))
[فيلم][تورنت][تحميل][رغدة متوحشة][2018][1080p][Web-DL] 5 arabp2p.com

[فيلم][تورنت][تحميل][رغدة متوحشة][2018][1080p][Web-DL] 6 arabp2p.com
((الممثلون))
[فيلم][تورنت][تحميل][رغدة متوحشة][2018][1080p][Web-DL] 7 arabp2p.com

[فيلم][تورنت][تحميل][رغدة متوحشة][2018][1080p][Web-DL] 8 arabp2p.com
((لقطات من المحتوى))
[فيلم][تورنت][تحميل][رغدة متوحشة][2018][1080p][Web-DL] 9 arabp2p.com
[فيلم][تورنت][تحميل][رغدة متوحشة][2018][1080p][Web-DL] 10 arabp2p.com
[فيلم][تورنت][تحميل][رغدة متوحشة][2018][1080p][Web-DL] 11 arabp2p.com
[فيلم][تورنت][تحميل][رغدة متوحشة][2018][1080p][Web-DL] 12 arabp2p.com
[فيلم][تورنت][تحميل][رغدة متوحشة][2018][1080p][Web-DL] 13 arabp2p.com
[فيلم][تورنت][تحميل][رغدة متوحشة][2018][1080p][Web-DL] 14 arabp2p.com
[فيلم][تورنت][تحميل][رغدة متوحشة][2018][1080p][Web-DL] 15 arabp2p.com
[فيلم][تورنت][تحميل][رغدة متوحشة][2018][1080p][Web-DL] 16 arabp2p.com
[فيلم][تورنت][تحميل][رغدة متوحشة][2018][1080p][Web-DL] 17 arabp2p.com
[فيلم][تورنت][تحميل][رغدة متوحشة][2018][1080p][Web-DL] 18 arabp2p.com

[فيلم][تورنت][تحميل][رغدة متوحشة][2018][1080p][Web-DL] 19 arabp2p.com
((مشاهدة ممتعه))
15 files