Toy Story 4 2019 1080p BluRay REMUX AVC DTS-HD MA TrueHD 7 1 Atmos - LameyHost مدبلج للعربية

27.59 GB |
التحميل : 175 |
التراكر : داخلي |
4 / 0 ( 62) |
12/10/2019

TIME 2 PLAY THE GAME
LameyHost@arabp2p.com
الرتبه Seeder
المرفوعات: 54
النقاط: 670,051.32
تاريخ التسجيل: 14/12/2009
LameyHost غير متصل

المركز الثالث - نوفمبر/2019
المركز الثالث - نوفمبر/2019
المركز الاول لقسم انمي مدبلج عربي »  افلام - أبريل/2020
المركز الاول لقسم انمي مدبلج عربي » افلام - أبريل/2020



السلام عليكم ورحمة الله وبركاته

مع اول عمل مرفوع بالتراكر لي

فيلم حكاية لعبة الجزء الرابع مدبلج بلوري

TOY STORY 4


Toy Story 4 2019 1080p BluRay REMUX AVC DTS-HD MA TrueHD 7 1 Atmos - LameyHost مدبلج للعربية تحميل تورنت 1 arabp2p.com

الشكر للغالي alrmothe  على الدبلجة
+ العمل مدعوم بسيد بوكس

معلومات عن الإصدارة


Code
Toy.Story.4.2019.1080p.BluRay.REMUX.AVC.DTS-HD.MA.TrueHD.7.1.Atmos.mkv
Format                      : Matroska
Format version              : Version 4 / Version 2
File size                   : 27.6 GiB
Duration                    : 1 h 40 min
Overall bit rate mode       : Variable
Overall bit rate            : 39.4 Mb/s
Movie name                  : Toy.Story.4.2019.1080p.BluRay.REMUX.AVC.DTS-HD.MA.TrueHD.7.1.Atmos-FGT
Encoded date                : UTC 2019-10-12 10:06:30
Writing application         : mkvmerge v38.0.0 ('The Silent Type') 64-bit
Writing library             : libebml v1.3.9 + libmatroska v1.5.2

Video
ID                          : 1
Format                      : AVC
Format/Info                 : Advanced Video Codec
Format profile              : High@L4.1
Format settings             : CABAC / 4 Ref Frames
Format settings, CABAC      : Yes
Format settings, ReFrames   : 4 frames
Format settings, GOP        : M=1, N=12
Codec ID                    : V_MPEG4/ISO/AVC
Duration                    : 1 h 40 min
Bit rate mode               : Variable
Bit rate                    : 23.6 Mb/s
Maximum bit rate            : 29.6 Mb/s
Width                       : 1 920 pixels
Height                      : 1 080 pixels
Display aspect ratio        : 16:9
Frame rate mode             : Constant
Frame rate                  : 23.976 (24000/1001) FPS
Color space                 : YUV
Chroma subsampling          : 4:2:0
Bit depth                   : 8 bits
Scan type                   : Progressive
Bits/(Pixel*Frame)          : 0.475
Stream size                 : 16.5 GiB (60%)
Title                       : Toy.Story.4.2019.1080p.BluRay.REMUX.AVC.DTS-HD.MA.TrueHD.7.1.Atmos-FGT
Language                    : English
Default                     : No
Forced                      : No

Audio #1
ID                          : 2
Format                      : TrueHD
Format profile              : TrueHD+Atmos / TrueHD
Codec ID                    : A_TRUEHD
Duration                    : 1 h 40 min
Bit rate mode               : Variable
Bit rate                    : 6 192 kb/s
Maximum bit rate            : 8 532 kb/s
Channel(s)                  : Object Based / 8 channels
Channel positions           : Object Based / Front: L C R, Side: L R, Back: L R, LFE
Sampling rate               :  / 48.0 kHz
Frame rate                  : 1 200.000 FPS (40 SPF)
Compression mode            : Lossless
Stream size                 : 4.33 GiB (16%)
Title                       : Toy.Story.4.2019.1080p.BluRay.REMUX.AVC.DTS-HD.MA.TrueHD.7.1.Atmos-FGT
Language                    : English
Default                     : No
Forced                      : No

Audio #2
ID                          : 3
Format                      : DTS
Format/Info                 : Digital Theater Systems
Format profile              : MA / Core
Codec ID                    : A_DTS
Duration                    : 1 h 40 min
Bit rate mode               : Variable / Constant
Bit rate                    : 4 160 kb/s / 1 509 kb/s
Channel(s)                  : 8 channels / 6 channels
Channel positions           : Front: L C R, Side: L R, Back: L R, LFE / Front: L C R, Side: L R, LFE
Sampling rate               : 48.0 kHz
Frame rate                  : 93.750 FPS (512 SPF)
Bit depth                   : 24 bits
Compression mode            : Lossless / Lossy
Stream size                 : 2.91 GiB (11%)
Title                       : Toy.Story.4.2019.1080p.BluRay.REMUX.AVC.DTS-HD.MA.TrueHD.7.1.Atmos-FGT
Language                    : English
Default                     : No
Forced                      : No

Audio #3
ID                          : 4
Format                      : AC-3
Format/Info                 : Audio Coding 3
Codec ID                    : A_AC3
Duration                    : 1 h 40 min
Bit rate mode               : Constant
Bit rate                    : 640 kb/s
Channel(s)                  : 6 channels
Channel positions           : Front: L C R, Side: L R, LFE
Sampling rate               : 48.0 kHz
Frame rate                  : 31.250 FPS (1536 SPF)
Bit depth                   : 16 bits
Compression mode            : Lossy
Stream size                 : 458 MiB (2%)
Title                       : Toy.Story.4.2019.1080p.BluRay.REMUX.AVC.DTS-HD.MA.TrueHD.7.1.Atmos-FGT
Language                    : English
Service kind                : Complete Main
Default                     : No
Forced                      : No

Audio #4
ID                          : 5
Format                      : DTS
Format/Info                 : Digital Theater Systems
Format profile              : HRA / Core
Codec ID                    : A_DTS
Duration                    : 1 h 40 min
Bit rate mode               : Constant
Bit rate                    : 2 046 kb/s / 1 509 kb/s
Channel(s)                  : 6 channels
Channel positions           : Front: L C R, Side: L R, LFE
Sampling rate               : 48.0 kHz
Frame rate                  : 93.750 FPS (512 SPF)
Bit depth                   : 24 bits
Compression mode            : Lossy
Stream size                 : 1.43 GiB (5%)
Title                       : Toy.Story.4.2019.1080p.BluRay.REMUX.AVC.DTS-HD.MA.TrueHD.7.1.Atmos-FGT
Language                    : English
Default                     : No
Forced                      : No

Audio #5
ID                          : 6
Format                      : AC-3
Format/Info                 : Audio Coding 3
Codec ID                    : A_AC3
Duration                    : 1 h 40 min
Bit rate mode               : Constant
Bit rate                    : 320 kb/s
Channel(s)                  : 2 channels
Channel positions           : Front: L R
Sampling rate               : 48.0 kHz
Frame rate                  : 31.250 FPS (1536 SPF)
Bit depth                   : 16 bits
Compression mode            : Lossy
Stream size                 : 229 MiB (1%)
Title                       : Toy.Story.4.2019.1080p.BluRay.REMUX.AVC.DTS-HD.MA.TrueHD.7.1.Atmos-FGT
Language                    : English
Service kind                : Complete Main
Default                     : No
Forced                      : No

Audio #6
ID                          : 7
Format                      : AC-3
Format/Info                 : Audio Coding 3
Codec ID                    : A_AC3
Duration                    : 1 h 40 min
Bit rate mode               : Constant
Bit rate                    : 320 kb/s
Channel(s)                  : 2 channels
Channel positions           : Front: L R
Sampling rate               : 48.0 kHz
Frame rate                  : 31.250 FPS (1536 SPF)
Bit depth                   : 16 bits
Compression mode            : Lossy
Stream size                 : 229 MiB (1%)
Title                       : Toy.Story.4.2019.1080p.BluRay.REMUX.AVC.DTS-HD.MA.TrueHD.7.1.Atmos-FGT
Language                    : English
Service kind                : Complete Main
Default                     : No
Forced                      : No

Audio #7
ID                          : 8
Format                      : AC-3
Format/Info                 : Audio Coding 3
Codec ID                    : A_AC3
Duration                    : 1 h 40 min
Bit rate mode               : Constant
Bit rate                    : 640 kb/s
Channel(s)                  : 6 channels
Channel positions           : Front: L C R, Side: L R, LFE
Sampling rate               : 48.0 kHz
Frame rate                  : 31.250 FPS (1536 SPF)
Bit depth                   : 16 bits
Compression mode            : Lossy
Stream size                 : 458 MiB (2%)
Title                       : Toy.Story.4.2019.1080p.BluRay.REMUX.AVC.DTS-HD.MA.TrueHD.7.1.Atmos-FGT
Language                    : French
Service kind                : Complete Main
Default                     : No
Forced                      : No

Audio #8
ID                          : 9
Format                      : AC-3
Format/Info                 : Audio Coding 3
Codec ID                    : A_AC3
Duration                    : 1 h 40 min
Bit rate mode               : Constant
Bit rate                    : 640 kb/s
Channel(s)                  : 6 channels
Channel positions           : Front: L C R, Side: L R, LFE
Sampling rate               : 48.0 kHz
Frame rate                  : 31.250 FPS (1536 SPF)
Bit depth                   : 16 bits
Compression mode            : Lossy
Stream size                 : 458 MiB (2%)
Title                       : Toy.Story.4.2019.1080p.BluRay.REMUX.AVC.DTS-HD.MA.TrueHD.7.1.Atmos-FGT
Language                    : Spanish
Service kind                : Complete Main
Default                     : No
Forced                      : No

Audio #9
ID                          : 10
Format                      : AC-3
Format/Info                 : Audio Coding 3
Codec ID                    : A_AC3
Duration                    : 1 h 40 min
Bit rate mode               : Constant
Bit rate                    : 320 kb/s
Channel(s)                  : 2 channels
Channel positions           : Front: L R
Sampling rate               : 48.0 kHz
Frame rate                  : 31.250 FPS (1536 SPF)
Bit depth                   : 16 bits
Compression mode            : Lossy
Stream size                 : 229 MiB (1%)
Title                       : Toy.Story.4.2019.1080p.BluRay.REMUX.AVC.DTS-HD.MA.TrueHD.7.1.Atmos-FGT
Language                    : English
Service kind                : Complete Main
Default                     : No
Forced                      : No

Audio #10
ID                          : 21
Format                      : AC-3
Format/Info                 : Audio Coding 3
Codec ID                    : A_AC3
Duration                    : 1 h 40 min
Bit rate mode               : Constant
Bit rate                    : 384 kb/s
Channel(s)                  : 6 channels
Channel positions           : Front: L C R, Side: L R, LFE
Sampling rate               : 48.0 kHz
Frame rate                  : 31.250 FPS (1536 SPF)
Bit depth                   : 16 bits
Compression mode            : Lossy
Stream size                 : 275 MiB (1%)
Title                       : Arabic
Language                    : Arabic
Service kind                : Complete Main
Default                     : Yes
Forced                      : No



Toy Story 4 2019 1080p BluRay REMUX AVC DTS-HD MA TrueHD 7 1 Atmos - LameyHost مدبلج للعربية تحميل تورنت 2 arabp2p.com
Toy Story 4 2019 1080p BluRay REMUX AVC DTS-HD MA TrueHD 7 1 Atmos - LameyHost مدبلج للعربية تحميل تورنت 3 arabp2p.com
Toy Story 4 2019 1080p BluRay REMUX AVC DTS-HD MA TrueHD 7 1 Atmos - LameyHost مدبلج للعربية تحميل تورنت 4 arabp2p.com
Toy Story 4 2019 1080p BluRay REMUX AVC DTS-HD MA TrueHD 7 1 Atmos - LameyHost مدبلج للعربية تحميل تورنت 5 arabp2p.com
Toy Story 4 2019 1080p BluRay REMUX AVC DTS-HD MA TrueHD 7 1 Atmos - LameyHost مدبلج للعربية تحميل تورنت 6 arabp2p.com
Toy Story 4 2019 1080p BluRay REMUX AVC DTS-HD MA TrueHD 7 1 Atmos - LameyHost مدبلج للعربية تحميل تورنت 7 arabp2p.com
Toy Story 4 2019 1080p BluRay REMUX AVC DTS-HD MA TrueHD 7 1 Atmos - LameyHost مدبلج للعربية تحميل تورنت 8 arabp2p.com
Toy Story 4 2019 1080p BluRay REMUX AVC DTS-HD MA TrueHD 7 1 Atmos - LameyHost مدبلج للعربية تحميل تورنت 9 arabp2p.com



11 files