الجزء الثاني اخي الدب مدبلج للعربية Brother Bear 2 2006 1080p BluRay x264 2Audio (English,Arabic) - alrmothe

4.48 GB |
التحميل : 455 |
التراكر : خارجي |
1 / 5 |
04/04/2013

تخصص جودات عالية
alrmothe@arabp2p.com
الرتبه Super Member
المرفوعات: 241
النقاط: 207,702.99
تاريخ التسجيل: 09/04/2009
alrmothe غير متصل

المركز الاول - مارس/2018
المركز الاول - مارس/2018



.

Movies : Animation : BluRay : 2Audio


Brother Bear 2 2006 1080p BluRay x264 2Audio (English,Arabic) - alrmothe



الجزء الثاني اخي الدب مدبلج للعربية Brother Bear 2 2006 1080p BluRay x264 2Audio (English,Arabic) - alrmothe تحميل تورنت 1 arabp2p.com

الجزء الثاني اخي الدب مدبلج للعربية Brother Bear 2 2006 1080p BluRay x264 2Audio (English,Arabic) - alrmothe تحميل تورنت 2 arabp2p.com

ضغطت الفيلم بقناتين الإنجليزية والعربية

الجزء الثاني اخي الدب مدبلج للعربية Brother Bear 2 2006 1080p BluRay x264 2Audio (English,Arabic) - alrmothe تحميل تورنت 3 arabp2p.com
IMDB:
http://www.imdb.com/title/tt0465925/
Genre:Animation | Adventure | Family  
Source:Blu-ray Disc
Language:English,Arabic
File size:4.47 GiB
Overall bit rate:8721 Kbps
Duration:1h 13mn
Encoded / Released By:alrmothe


Storyline:Kenai, still a bear and Koda strongly believe that they do not need any girl, just each other. Kenai dreams of Nita, a girl he had met and saved when he was very young. After giving her an


الجزء الثاني اخي الدب مدبلج للعربية Brother Bear 2 2006 1080p BluRay x264 2Audio (English,Arabic) - alrmothe تحميل تورنت 4 arabp2p.com
cast
Joaquin Phoenix ... Kenai (voice)
Mandy Moore ... Nita (voice)
Jeremy Suarez ... Koda (voice)
Jason Raize ... Denahi (voice)
Rick Moranis ... Rutt (voice)
Dave Thomas ... Tuke (voice)

الجزء الثاني اخي الدب مدبلج للعربية Brother Bear 2 2006 1080p BluRay x264 2Audio (English,Arabic) - alrmothe تحميل تورنت 5 arabp2p.com
Video Information
Format: Matroska
Format : AVC
Format/Info : Advanced Video Codec
Format profile : High@L4.1
Format settings, CABAC : Yes
Format settings, ReFrames : 4 frames  
Codec ID : V_MPEG4/ISO/AVC  
Bit rate : 7010 Kbps
Display aspect ratio : 16:9
Frame rate : 23.976 fps
Color space : YUV
Chroma subsampling : 4:2:0
Bit depth : 8 bits
Scan type : Progressive
Bits/(Pixel*Frame) : 0.141
Stream size: 3.51 GiB (79%)
Title: Brother Bear 2006 1080p BluRay x264 2Audio - alrmothe
Resolution:1920x1080


Audio Information:
Audio #1
Format: DTS
Format/Info: Digital Theater Systems
Mode: 16
Format settings, Endianness: Big
Codec ID: A_DTS
Bit rate mode: Constant
Bit rate : 1 509 Kbps
Channel(s) : 6 channels
Channel positions: Front: L C R, Side: L R, LFE
Sampling rate: 48.0 KHz
Bit depth: 24 bits
Compression mode: Lossy
Stream size: 793 MiB (17%)
Language:English



Audio #2
ID  : 3
Format : AC3
Bit rate :192Kbps
Channel(s) : 2 channels
Channel positions : Front: L C R, Side: L R, LFE
Sampling rate : 48.0 KHz
Bit depth : 16 bits
Stream size : 101 GiB (2%)  
Language : Arabic
Language:Arabic



كل الترجمات مرفقه مع الفيلم ما عليكم سوى اختيار اللغة التي تريدونها
SUBEnglish,Arabic,French,Danish



Screenshots
الجزء الثاني اخي الدب مدبلج للعربية Brother Bear 2 2006 1080p BluRay x264 2Audio (English,Arabic) - alrmothe تحميل تورنت 6 arabp2p.com
الجزء الثاني اخي الدب مدبلج للعربية Brother Bear 2 2006 1080p BluRay x264 2Audio (English,Arabic) - alrmothe تحميل تورنت 7 arabp2p.com
الجزء الثاني اخي الدب مدبلج للعربية Brother Bear 2 2006 1080p BluRay x264 2Audio (English,Arabic) - alrmothe تحميل تورنت 8 arabp2p.com
الجزء الثاني اخي الدب مدبلج للعربية Brother Bear 2 2006 1080p BluRay x264 2Audio (English,Arabic) - alrmothe تحميل تورنت 9 arabp2p.com
الجزء الثاني اخي الدب مدبلج للعربية Brother Bear 2 2006 1080p BluRay x264 2Audio (English,Arabic) - alrmothe تحميل تورنت 10 arabp2p.com
الجزء الثاني اخي الدب مدبلج للعربية Brother Bear 2 2006 1080p BluRay x264 2Audio (English,Arabic) - alrmothe تحميل تورنت 11 arabp2p.com
الجزء الثاني اخي الدب مدبلج للعربية Brother Bear 2 2006 1080p BluRay x264 2Audio (English,Arabic) - alrmothe تحميل تورنت 12 arabp2p.com
الجزء الثاني اخي الدب مدبلج للعربية Brother Bear 2 2006 1080p BluRay x264 2Audio (English,Arabic) - alrmothe تحميل تورنت 13 arabp2p.com
الجزء الثاني اخي الدب مدبلج للعربية Brother Bear 2 2006 1080p BluRay x264 2Audio (English,Arabic) - alrmothe تحميل تورنت 14 arabp2p.com
الجزء الثاني اخي الدب مدبلج للعربية Brother Bear 2 2006 1080p BluRay x264 2Audio (English,Arabic) - alrmothe تحميل تورنت 15 arabp2p.com



Code

http://fr33dom.h33t.com:3310/announce
http://121.14.98.151:9090/announce
http://tracker.ex.ua/announce
http://tracker.torrentbay.to:6969/announce
http://exodus.desync.com:6969/announce
http://94.228.192.98/announce
http://tracker.coppersurfer.tk:6969/announce
udp://tracker.istole.it:80/announce
udp://fr33dom.h33t.com:3310/announce








Trailer
http://www.youtube.com/watch?v=_9SV0q1A1_4






.
28 files