Mulan 1998 DVDrip with 5.1 Arabic/English Audio مولان free downloadمجاني

1.32 GB |
التحميل : 554 |
التراكر : داخلي |
0 / 0 ( 209) |
14/12/2011

hadyhosny@arabp2p.com
الرتبه Members
المرفوعات: 2
النقاط: 3,098.10
تاريخ التسجيل: 14/12/2011
hadyhosny غير متصل




بسم الله الرحمن الرحيم

Mulan 1998 DVDrip with 5.1 Arabic/English Audio مولان تحميل تورنت 1 arabp2p.com



This is my own DVDrip of Mulan with English/Arabic 5.1 AC3 audio, English/Arabic subtitles and chapters.


Code

Complete name                    : Mulan.1998.DVDRip.AC3.x264.Dual-Audio.mkv
Format                           : Matroska
File size                        : 1.32 GiB
Duration                         : 1h 24mn
Overall bit rate                 : 2 250 Kbps
Encoded date                     : UTC 2010-07-11 22:11:01
Writing application              : mkvmerge v3.4.0 ('Rapunzel') built on May 15 2010 09:38:20
Writing library                  : libebml v0.8.0 + libmatroska v0.9.0

Video
ID                               : 1
Format                           : AVC
Format/Info                      : Advanced Video Codec
Format profile                   : High@L4.1
Format settings, CABAC           : Yes
Format settings, ReFrames        : 4 frames
Muxing mode                      : Container profile=Unknown@4.1
Codec ID                         : V_MPEG4/ISO/AVC
Duration                         : 1h 24mn
Bit rate                         : 1 373 Kbps
Width                            : 684 pixels
Height                           : 576 pixels
Display aspect ratio             : 16:9
Frame rate                       : 25.000 fps
Color space                      : YUV
Chroma subsampling               : 4:2:0
Bit depth                        : 8 bits
Scan type                        : Progressive
Bits/(Pixel*Frame)               : 0.139
Stream size                      : 828 MiB (61%)
Title                            : Video
Writing library                  : x264 core 98 r1649 c54c47d
Encoding settings                : cabac=1 / ref=3 / deblock=1:0:0 / *censored*yse=0x3:0x113 / me=hex / subme=7 / psy=1 / psy_rd=1.00:0.00 / mixed_ref=1 / me_range=16 / chroma_me=1 / trellis=1 / 8x8dct=1 / cqm=0 / deadzone=21,11 / fast_pskip=1 / chroma_qp_offset=-2 / threads=3 / sliced_threads=0 / nr=0 / decimate=1 / interlaced=0 / constrained_intra=0 / bframes=3 / b_pyramid=2 / b_adapt=1 / b_bias=0 / direct=1 / weightb=1 / weightp=2 / keyint=250 / keyint_min=25 / scenecut=40 / intra_refresh=0 / rc_lookahead=40 / rc=crf / mbtree=1 / crf=18.0 / qcomp=0.60 / qpmin=10 / qpmax=51 / qpstep=4 / vbv_maxrate=40000 / vbv_bufsize=40000 / crf_max=0.0 / ip_ratio=1.40 / aq=1:1.00 / nal_hrd=none
Language                         : English

Audio #1
ID                               : 2
Format                           : AC-3
Format/Info                      : Audio Coding 3
Mode extension                   : CM (complete main)
Codec ID                         : A_AC3
Duration                         : 1h 24mn
Bit rate mode                    : Constant
Bit rate                         : 384 Kbps
Channel(s)                       : 6 channels
Channel positions                : Front: L C R, Side: L R, LFE
Sampling rate                    : 48.0 KHz
Stream size                      : 232 MiB (17%)
Title                            : Arabic 5.1 Audio
Language                         : Arabic

Audio #2
ID                               : 3
Format                           : AC-3
Format/Info                      : Audio Coding 3
Mode extension                   : CM (complete main)
Codec ID                         : A_AC3
Duration                         : 1h 24mn
Bit rate mode                    : Constant
Bit rate                         : 448 Kbps
Channel(s)                       : 6 channels
Channel positions                : Front: L C R, Side: L R, LFE
Sampling rate                    : 48.0 KHz
Stream size                      : 270 MiB (20%)
Title                            : English 5.1 Audio
Language                         : English

Text #1
ID                               : 4
Format                           : VobSub
Codec ID                         : S_VOBSUB
Codec ID/Info                    : The same subtitle format used on DVDs
Title                            : English Subs
Language                         : English

Text #2
ID                               : 5
Format                           : VobSub
Codec ID                         : S_VOBSUB
Codec ID/Info                    : The same subtitle format used on DVDs
Title                            : Arabic Subs
Language                         : Arabic

Menu
00:00:00.000                     : Program Start
00:04:54.767                     : Main Title
00:08:33.668                     : The Huns Attack
00:12:37.135                     : Last-Minute Review
00:15:54.302                     : "Honor To Us All"
00:19:33.969                     : The Matchmaker
00:21:05.803                     : "Reflection"
00:23:28.704                     : A Proclamation From The Emperor
00:26:42.471                     : Mulan's Choice
00:28:52.838                     : The Ancestors
00:31:18.639                     : A Guardian For Mulan
00:33:46.340                     : A Message For The Emperor
00:41:28.373                     : The Powerful Mushu
00:44:32.040                     : A Man's World
00:46:41.974                     : The Greatest Troops Of All Time
00:51:28.374                     : Rise And Shine
00:53:37.275                     : "I'll Make A Man Out Of You"
00:58:24.709                     : Close Call
01:03:53.476                     : Mushu's Plan
01:07:26.110                     : Urgent News From The General
01:11:54.510                     : "A Girl Worth Fighting For"
01:15:13.810                     : A Village Destroyes
01:17:52.977                     : The Hun Onslaught
01:19:28.644                     : The Masquerade Is Over
01:26:50.311                     : Indestructible Huns
01:28:01.645                     : Victory Celebration
01:30:14.645                     : Huns In The Imperial City
01:31:50.613                     : Saving The Emperor
01:38:39.514                     : Honor For Mulan




Mulan 1998 DVDrip with 5.1 Arabic/English Audio مولان تحميل تورنت 2 arabp2p.com
السلام عليكم ورحمة الله وبركاته
2 files