انقر هنا لمشاهدة النسخة الكاملة للصفحة

تورنت - Anastasia 1997 (Arabic) 720p BDRip AC3- alrmothe اناستازيا

افلام الحجم : 1.85 GB التراكر: خارجي المتصلين : 13,1  اكتمل ( 15 ) 10/06/2011 تحميل التورنت

Movies : Animation : HD 720p : Arabic

 1 arabp2p.com



 2 arabp2p.com
cast
Meg Ryan  ...  Anastasia (voice)  
John Cusack  ...  Dimitri (voice)  
Kelsey Grammer  ...  Vladimir (voice)  
Christopher Lloyd  ...  Rasputin (voice)  
Hank Azaria  ...  Bartok (voice)  
Bernadette Peters  ...  Sophie (voice)  
Kirsten Dunst  ...  Young Anastasia (voice)  
Angela Lansbury...The Dowager Empress (voice)  
Rick Jones  ...  Czar Nicholas / Servant / Revolutionary Soldier / Ticket Agent (voice)  
Andrea Martin  ...  Phlegmenkoff /(voice)  
Glenn Walker Harris Jr.  ...  Young (voice)  
Debra Mooney  ...  Actress (voice)  
Arthur Malet  ...  Travelling Man /(voice)  
Charity James  ...  Anastasia Impostor (voice)  
Liz Callaway  ...  Anastasia (singing voice)  


 3 arabp2p.com
IMDB:
http://www.imdb.com/title/tt0118617/
IMDb Rating:6.7/10( 19,998 ) votes)
Genre:Animation | Adventure | Drama
Language: Arabic



 4 arabp2p.com
Video Information
Format : MPEG-4 Visual
Duration : 1h 30mn
Bit rate : 2 586 Kbps
Display aspect ratio : 2.35:1
Frame rate : 25.025 fps
Resolution : 24 bits
Colorimetry : 4:2:0
Scan type : Progressive
Bits/(Pixel*Frame) : 0.148
Stream size : 1.63 GiB (89%)
Writing library : XviD 58
Resolution:1280 x 544


Audio Information:
Format : AC-3
Codec ID : 2000
Duration : 1h 30mn
Bit rate mode : Constant
Bit rate : 320 Kbps
Channel(s) : 6 channels
Channel positions : Front: L C R, Surround: L R, LFE
Sampling rate : 44.1 KHz
Stream size : 206 MiB (11%)




 5 arabp2p.com


 6 arabp2p.com

 7 arabp2p.com

 8 arabp2p.com

 9 arabp2p.com






 10 arabp2p.com


















.

الملفات ذات العلاقة بـ ( Anastasia 1997 (Arabic) 720p BDRip AC3- alrmothe اناستازيا )
آنستازيا مدبلج Anastasia 1997 1080p Audio Arabic 1 0 1.22 GB
أنستازيا Anastasia (1997) [الفصحى][العامية المصرية][720p] 1 0 1.30 GB
Open Season 3 2010( Arabic) 720p BRRip AC3-alrmothe 4 1 1.34 GB
مدبلج Tangled Ever After 2012 Arabic 1080p x264 AC3 - alrmothe 17 2 1.35 GB
مدبلج Puss In Boots 2011 Arabic 1080p x264 AC3 - alrmothe 10 25 4.22 GB
زيتا307http://i1133.photobucket.com/albums/m583/zeta307/rdod/112.jpg
alrmothe وعيب التراكز المفتوح ان تحدث فيه مشاكل مرات يقفل على حسب المنشأ وتجد ان نفس التراكز شغال عند اخرين واخرين لا يشتغل المشكلة تكمن في الاتصال وفي الاسيرفر http://store1.up-00.com/Jun11/eZh36170.jpg لو تلاحظ نفس التراكز متكرره لكن تراكز واحد الذي يعمل مشاكل التراكز المفتوح كثيره
alrmothe اشكرك على شرحك لكن كثرة التراكز تؤدي الى الزيادة في سرعة التحميل لدى الرافع ولدى المحملين http://store1.up-00.com/Jun11/dVz35594.jpg لاحظ الصورة نفس التراكز لكن يختلف عدد المحملين الاستفادة من كثرة التراكز هو زيادة السرعة لان في بعض الاخوه يحدد نسبة الرفع ============= وعيب التراكز المفتوح ان تحدث فيه مشاكل مرات يقفل على حسب المنشأ وتجد ان نفس التراكز شغال عند اخرين واخرين لا يشتغل المشكلة تكمن في الاتصال وفي الاسيرفر http://store1.up-00.com/Jun11/egC35594.jpg لو تلاحظ نفس التراكز متكرره لكن تراكز واحد الذي يعمل مشاكل التراكز المفتوح كثيره لكن على العموم بصفة عامة كثرة التراكز وكثرته تزيد من التحميل واشكرك على التوضيح ومجهودك
zin123http://img9.imageshack.us/img9/9306/09071432093346.png طبعاً شكراً لمجهودك اولاً واخيراً ولكن لابأس أن نستفيد من تجارب بعضاً البعض :newsmile036:
alrmotheهلا بولد العم البلوي http://store1.up-00.com/Jun11/w0a29148.jpg كما تلاحظ الرفع والتحميل يعملان بشكل طبيعي لكنني أواجه مشكلة في الاتصال لذلك اعذروني ان حدث بطء في التحميل والمدة طالت
alrmotheالسيد مفتوح اصلا انا واضعه تراكز مفتوح عشان الكل يستفيد من التحميل لكن التراكز فيه مشكلة وللمعلوميه مايقارب 15 تراكز واضعه فالتحميل والرفع مفعله لان التراكزات الاخرى تعمل بشكل طبيعي
raydيعطيك الله عافية يابطل بس ياليت لو تفتح السيد يالغالي اكون شاكر لك http://up.alslh.com/files/2qv7kydzhd05yjm7uxix.gif

الرئيسية - قائمة ملفات التورنت - فيسبوك