انقر هنا لمشاهدة النسخة الكاملة للصفحة

تورنت - Aladdin And The King Of Thieves (1996) [1080p] مدبلج بالعربية

افلام مدبلجه عربي الحجم : 1.65 GB التراكر: داخلي المتصلين : 0,2  اكتمل ( 79 ) 18/05/2020 تحميل التورنت

بسم الله الرحمن الرحيم

السلام عليكم ورحمه الله وبركاته
نقدم لكم فيلم مدبلج بالعامية المصرية


Aladdin And The King Of Thieves
علاء الدين وملك اللصوص
 1 arabp2p.com

معلومات عن الفيلم
Director
Tad Stones
Cast
Robin Williams as Genie
John Rhys-Davies as Cassim
Jim Cummings as Razoul
CCH Pounder as The Oracle
At long last, Aladdin is about to marry the Princess Jasmine.
Despite the presence and encouragement of his friends Genie, Carpet, and Abu, he is fearful and anxious.
He is most worried as to what kind of father he will be, having never known his own.
But when the 40 Thieves disrupt the wedding trying to steal a magical oracular talisman,
Aladdin is drawn into a dangerous quest to stop the thieves...and find his long-lost father.

معلومات عن الملف

Code
[b]General
Complete name: Aladdin And The King Of Thieves (1996) [1080p]Aladdin.And.The.King.Of.Thieves.1996.1080p.BluRay.x264.Legend.mkv
Format                         : Matroska
Format version                 : Version 4
File size                      : 1.63 GiB
Duration                       : 1 h 21 min
Overall bit rate               : 2 855 kb/s

Video
ID                             : 1
Format                         : AVC
Format/Info                    : Advanced Video Codec
Format profile                 : High@L4.1
Format settings                : CABAC / 4 Ref Frames
Format settings, CABAC         : Yes
Format settings, Reference fra : 4 frames
Codec ID                       : V_MPEG4/ISO/AVC
Duration                       : 1 h 21 min
Bit rate                       : 2 250 kb/s
Width                          : 1 422 pixels
Height                         : 800 pixels
Display aspect ratio           : 16:9
Frame rate mode                : Constant
Frame rate                     : 23.976 (24000/1001) FPS

Audio #1
ID                             : 2
Format                         : AC-3
Format/Info                    : Audio Coding 3
Commercial name                : Dolby Digital
Codec ID                       : A_AC3
Duration                       : 1 h 18 min
Bit rate mode                  : Constant
Bit rate                       : 448 kb/s
Channel(s)                     : 2 channels
Channel layout                 : L R
Sampling rate                  : 48.0 kHz
Frame rate                     : 31.250 FPS (1536 SPF)
Compression mode               : Lossy
Delay relative to video        : 3 s 383 ms
Stream size                    : 250 MiB (15%)
Language                       : Arabic
Service kind                   : Complete Main
Default                        : Yes
Forced                         : No

Audio #2
ID                             : 3
Format                         : AAC LC
Format/Info                    : Advanced Audio Codec Low Complexity
Codec ID                       : A_AAC-2
Duration                       : 1 h 21 min
Bit rate                       : 192 kb/s
Channel(s)                     : 6 channels
Channel layout                 : C L R Ls Rs LFE
Sampling rate                  : 48.0 kHz
Frame rate                     : 46.875 FPS (1024 SPF)
Compression mode               : Lossy
Stream size                    : 112 MiB (7%)
Language                       : English
Default                        : No
Forced                         : No

Text
ID                             : 4
Format                         : UTF-8
Codec ID                       : S_TEXT/UTF8
Codec ID/Info                  : UTF-8 Plain Text
Duration                       : 1 h 20 min
Bit rate                       : 86 b/s
Count of elements              : 962
Stream size                    : 50.9 KiB (0%)
Language                       : Arabic
Default                        : Yes
Forced                         : No
[/b]



صور الفيلم
 2 arabp2p.com

 3 arabp2p.com

 4 arabp2p.com

 5 arabp2p.com

 6 arabp2p.com

اتمنى ان ينال الفيلم اعجابكم

الملفات ذات العلاقة بـ ( Aladdin And The King Of Thieves (1996) [1080p] مدبلج بالعربية )
[مدبلج] [2019][Born A King [WEB-DL][1080p 5 0 3.35 GB
[Dalmatians 101 [1996][720p][WEB-DL [نسخة اللايف أكشن - مدبلج باللهجة المصرية] 3 0 3.18 GB
King.Kong.2005.BrRIp.x264.Arabic.720p 5 0 2.42 GB
Dumbo [مدبلج] [2019] [1080p] 1 1 4.55 GB
Pirates of the Caribbean Collection [مدبلج] [1080p] 6 3 26.68 GB
Legend165 السلام عليكم! عندي سؤال، الصوت العربي مأخوذ من ستارزبلاي؟ لا ولكن تم التعديل على الملف ليتناسب من نسخة ال Blyray
abed98السلام عليكم! عندي سؤال، الصوت العربي مأخوذ من ستارزبلاي؟

الرئيسية - قائمة ملفات التورنت - فيسبوك