انقر هنا لمشاهدة النسخة الكاملة للصفحة

تورنت - Anastasia 1956 1080p BluRay H264 AAC-RARBG

افلام اجنبيه الحجم : 2.01 GB التراكر: خارجي المتصلين : 2,7  اكتمل ( 169 ) 09/04/2016 تحميل التورنت

بسم الله الرحمن الرحيم





بعد أن شاهدنا هذه الملحمة الدرامية التاريخية فى فيلم كارتون Anastasia 1997  يسعدنى أن أقدم لكم النسخة الحقيقة من هذا الفيلم


فيلم الدراما التاريخي و السيرة الذاتية لنجوم هوليود فى فترة الخمسينات Ingrid Bergman _ Yul Brynner



Anastasia 1956



قصة الفيلم



هي قصه حقيقيه حدثت في روسيا في عصر القيصر الروسي رومانوف الذي تم اغتياله هو واسرته عام ١٩١٦بعد قيام الثورة البلشفيه فقد تنبأ الطبيب الملكي راسبوتين باغتيال حين قال لامبراطوره الكساندرا انها ستزاح عن العرش هي وبناتها الاربعه وزوجها وهم انستازيا وماريا وتاتانيا وانا وزوجها نيكولا رومانوف وعند حدثت الثورة لم يكن يتجاوز عمر انستازيا التسع سنوات فقد تم اسرها واسرتها ووضعهم في كوخ صغير الي حين المحاكمه وفي اليوم الثاني اعلن الحكم باعدام الاسره الحاكمة بمن فيهم انستازيا فدخل عليهم ظابطا يدعى يورفسكي وقام باعدام الاسرة رميا بالرصاص وسط دخان كثيف فقد ذكر يورفسكي في مذكراته بان مجوهرات الاميرات كانت كالدروع الواقية فلم يعثروا على الاميرتين انستازيا وماريا فقد كانتا قد هربتا وقد سمعو صوتا كالأنين للاميرات كن يصدرنه وبعد ذلك بدأت جدة أنستازيا من البحث عنها وكانت قد تمكنت من الهروب الي أمريكا فكانت الفتيات يدعين انهن الاميره المفقوده ولكن بعد مده وجدوا فتاه اسمها انا قد حاولت الانتحار لكنهم انقذوها وكانت قد فقدت ذاكرتها ولاكن بعد فتره عادت اليها ذاكرتها واعلنت انها الاميره المفقوده ولم تقبل الجده مقابلتها لتأكدها من ان حفيدتها ماتت مع الاسره كامله الا ان صحفيا روسيا قام باخذ موعد مع الامبراطورة الا ان الامبراطوره قد توفيت ولم تقابلها وانكر اقارب الاسره المالكة نسب الاميره وقالوا بان الاميره قد ماتت وقد توفيت هذه الفتاة سنه ١٩٨٤وفي عام١٩٩٤تمت مقارنه جثتها مع جثث الاسره الحاكمة ولم تتطابق بل انها تكون ابنه عم أحد عمال المنجم الذي اعدمت فيه الاسره المالكه




 1 arabp2p.com



 2 arabp2p.com



 3 arabp2p.com



 4 arabp2p.com



Video
ID : 1
Format : AVC
Format/Info : Advanced Video Codec
Format profile : High@L4.1
Format settings, CABAC : Yes
Format settings, ReFrames : 4 frames
Codec ID : avc1
Codec ID/Info : Advanced Video Coding
Duration : 1h 45mn
Bit rate : 2 500 Kbps
Width : 1 920 pixels
Height : 816 pixels
Display aspect ratio : 2.35:1
Frame rate mode : Constant
Frame rate : 23.976 (23976/1000) fps
Color space : YUV
Chroma subsampling : 4:2:0
Bit depth : 8 bits
Scan type : Progressive
Bits/(Pixel*Frame) : 0.067
Stream size : 1.84 GiB (92%)

Audio
ID : 2
Format : AAC
Format/Info : Advanced Audio Codec
Format profile : LC
Codec ID : 40
Duration : 1h 45mn
Bit rate mode : Constant
Bit rate : 224 Kbps
Channel(s) : 2 channels
Channel(s)_Original : 6 channels
Channel positions : Front: L C R, Side: L R, LFE
Sampling rate : 48.0 KHz
Frame rate : 46.875 fps (1024 spf)
Compression mode : Lossy
Stream size : 169 MiB (8%)
Language : English
Default : Yes



 5 arabp2p.com



 6 arabp2p.com

 7 arabp2p.com



enjoy




الملفات ذات العلاقة بـ ( Anastasia 1956 1080p BluRay H264 AAC-RARBG )
Now.You.See.Me.2.2016.1080p.BluRay.H264.AAC-RARBG 6497 13219 2.47 GB
The.Magnificent.Seven.2016.1080p.BluRay.H264.AAC-RARBG 3614 6089 2.55 GB
The.Infiltrator.2016.1080p.BluRay.H264.AAC-RARBG 784 389 2.44 GB
Anthropoid.2016.1080p.BluRay.H264.AAC-RARBG 525 273 2.31 GB
Nerve.2016.1080p.BluRay.H264.AAC-RARBG 524 371 1.85 GB
Youceph_Fellaoucenيعطيك العافية اخي موضوع رائع وفواصل جميلة جدا يسلموو ايديك
SalemKSADHيعطيك العافية ع الفلم بس كل الي فيه ماتوا ليه نشوفه

الرئيسية - قائمة ملفات التورنت - فيسبوك