Shaun the Sheep Movie 2015 HDRip XviD AC3-arabp2p

1.25 GB |
التحميل : 351 |
التراكر : داخلي |
0 / 0 ( 198) |
01/05/2015

مشاهدة ممتعة للجميع
SAEED707@arabp2p.com
الرتبه Uploader
المرفوعات: 112
النقاط: 957.17
تاريخ التسجيل: 31/01/2010
SAEED707 غير متصل

المركز الاول - يوليو/2015
المركز الاول - يوليو/2015
المركز الثاني - أكتوبر/2015
المركز الثاني - أكتوبر/2015
المركز الاول - ديسمبر/2015
المركز الاول - ديسمبر/2015
المركز الثاني - يناير/2016
المركز الثاني - يناير/2016
المركز الثاني - فبراير/2016
المركز الثاني - فبراير/2016
المركز الاول - مارس/2016
المركز الاول - مارس/2016
المركز الاول - أبريل/2016
المركز الاول - أبريل/2016
المركز الاول - مايو/2016
المركز الاول - مايو/2016
المركز الاول - يونيو/2016
المركز الاول - يونيو/2016



Shaun the Sheep Movie 2015


Shaun the Sheep Movie 2015 HDRip XviD AC3-arabp2p تحميل تورنت 1 arabp2p.com
Shaun the Sheep Movie 2015 HDRip XviD AC3-arabp2p تحميل تورنت 2 arabp2p.com


Shaun the Sheep Movie 2015 HDRip XviD AC3-arabp2p تحميل تورنت 3 arabp2p.com
When Shaun decides to take the day off and have some fun, he gets a little more action than he bargained for.
A mix up with the Farmer, a caravan and a very steep hill lead them all to the Big City and it's up to
Shaun and the flock to return everyone safely to the green grass of home.



Shaun the Sheep Movie 2015 HDRip XviD AC3-arabp2p تحميل تورنت 4 arabp2p.com
Format : AVI
Format/Info : Audio Video Interleave
Format profile : OpenDML
Format settings : rec
File size : 1.22 GiB
Duration : 1h 21mn
Overall bit rate : 2 139 Kbps
Writing application : AVI-Mux GUI 1.17.8.3, Feb 16 201019:42:50
===============================================================
Video
ID : 0
Format : MPEG-4 Visual
Format profile : Advanced Simple@L5
Format settings, BVOP : 2
Format settings, QPel : No
Format settings, GMC : No warppoints
Format settings, Matrix : Default (MPEG)
Codec ID : XVID
Codec ID/Hint : XviD
Duration : 1h 21mn
Bit rate : 2006 Kbps
Width : 720 pixels
Height : 384 pixels
Display aspect ratio : 1.85:1
Frame rate : 25.000 fps
Color space : YUV
Chroma subsampling : 4:2:0
Bit depth : 8 bits
Scan type : Progressive
Compression mode : Lossy
Bits/(Pixel*Frame : 0.290
Stream size : 1.14 GiB (94%)
Writing library : XviD 1.2.1 (UTC 2008-12-04)
===============================================================
Audio
ID : 1
Format : AC-3
Format/Info : Audio Coding 3
Mode extension : CM (complete main)
Format settings, Endianness : Big
Codec ID : 2000
Duration : 1h 21mn
Bit rate mode : Constant
Bit rate : 128 Kbps
Channel count : 2 channels
Channel positions : Front: L R
Sampling rate : 48.0 KHz
Bit depth : 16 bits
Compression mode : Lossy
Stream size : 74.7 MiB (6%)
Alignment : Aligned on interleaves
Interleave, duration : 64 ms (1.60 video frames)
Interleave, preload duration : 192 ms
Title : 3
===============================================================


Shaun the Sheep Movie 2015 HDRip XviD AC3-arabp2p تحميل تورنت 5 arabp2p.com
Shaun the Sheep Movie 2015 HDRip XviD AC3-arabp2p تحميل تورنت 6 arabp2p.com
Shaun the Sheep Movie 2015 HDRip XviD AC3-arabp2p تحميل تورنت 7 arabp2p.com
Shaun the Sheep Movie 2015 HDRip XviD AC3-arabp2p تحميل تورنت 8 arabp2p.com
Shaun the Sheep Movie 2015 HDRip XviD AC3-arabp2p تحميل تورنت 9 arabp2p.com
Shaun the Sheep Movie 2015 HDRip XviD AC3-arabp2p تحميل تورنت 10 arabp2p.com


Shaun the Sheep Movie 2015 HDRip XviD AC3-arabp2p تحميل تورنت 11 arabp2p.com



3 files