الرئيسية التورنت المنتدى القوانين العضوية الذهبية

Finding.Dory.2016.HDTS.x264.AC3

تحميل التورنت
1.38 GB |
التحميل : 145 |
التراكر : خارجي |
632 / 244 |
17/07/2016

سبحان الله وبحمده
BebaGH@arabp2p.com
الرتبه Members
المرفوعات: 14
النقاط: 63,594.05
تاريخ التسجيل: 01/01/2011
BebaGH غير متصل




Finding.Dory.2016.HDTS.x264.AC3 تحميل تورنت 1 arabp2p.com
P R E S E N T S . . . .

Finding.Dory.2016.HDTS.x264.AC3-VAiN

iMDB........: http://www.imdb.com/title/tt2277860/



T E C H N i C A L . i N F O . . .

Basic Information
Format : Matroska
Format version : Version 4 / Version 2
File size : 1.37 GiB
Duration : 1h 26mn
Overall bit rate mode : Variable
Overall bit rate : 2 255 Kbps
Encoded date : UTC 2016-07-10 21:25:07
Writing application : mkvmerge v8.3.0 ('Over the Horizon') 64bit
Writing library : libebml v1.3.1 + libmatroska v1.4.2

Video
ID : 1
Format : AVC
Format/Info : Advanced Video Codec
Format profile : High@L4.1
Format settings, CABAC : Yes
Format settings, ReFrames : 3 frames
Codec ID : V_MPEG4/ISO/AVC
Duration : 1h 26mn
Bit rate mode : Variable
Bit rate : 1 997 Kbps
Maximum bit rate : 40.0 Mbps
Width : 720 pixels
Height : 384 pixels
Display aspect ratio : 1.85:1
Frame rate mode : Constant
Frame rate : 29.970 (30000/1001) fps
Color space : YUV
Chroma subsampling : 4:2:0
Bit depth : 8 bits
Scan type : Progressive
Bits/(Pixel*Frame) : 0.241
Stream size : 1.21 GiB (89%)
Writing library : x264 core 148 r2692 64f4e24

Language : English
Default : Yes
Forced : No
Color range : Full
Color primaries : BT.709
Transfer characteristics : BT.709
Matrix coefficients : BT.709

Audio
ID : 2
Format : AC-3
Format/Info : Audio Coding 3
Mode extension : CM (complete main)
Format settings, Endianness : Big
Codec ID : A_AC3
Duration : 1h 26mn
Bit rate mode : Constant
Bit rate : 256 Kbps
Channel(s) : 2 channels
Channel positions : Front: L R
Sampling rate : 48.0 KHz
Frame rate : 31.250 fps (1536 spf)
Compression mode : Lossy
Delay relative to video : 16ms
Stream size : 159 MiB (11%)
Language : English
Default : Yes
Forced : No


E N C O D E R S . N O T E S . . .

SOURCE......: ViDEO...CPG
............: AUDiO...CPG
SAMPLE......: Yippers
ADDED NOTE..: Love Me.... Love You...fixed colours, sharp & whites and balcks... then sprayed sum ol' poo-shine and poof.... fixed sexy like....

screenshots
Finding.Dory.2016.HDTS.x264.AC3 تحميل تورنت 2 arabp2p.com
Finding.Dory.2016.HDTS.x264.AC3 تحميل تورنت 3 arabp2p.com
Finding.Dory.2016.HDTS.x264.AC3 تحميل تورنت 4 arabp2p.com
Finding.Dory.2016.HDTS.x264.AC3 تحميل تورنت 5 arabp2p.com
Finding.Dory.2016.HDTS.x264.AC3 تحميل تورنت 6 arabp2p.com
Finding.Dory.2016.HDTS.x264.AC3 تحميل تورنت 7 arabp2p.com

إظهار/اخفاء الملفات
9 files