[اطلعولي بره][2018][1080p][Web-DL]

3.77 GB |
التحميل : 130 |
التراكر : داخلي |
9 / 0 ( 76) |
17/12/2019

الشبح الاسود
xrescom@arabp2p.com
الرتبه Seeder
المرفوعات: 58
النقاط: 281,831.00
تاريخ التسجيل: 20/04/2013
xrescom غير متصل





اطلعولي بره
اخراج: وائل إحسان
تمثيل:  كريم محمود عبدالعزيز , خالد الصاوي , بيومي فؤاد , أحمد فتحي , ملك قورة , أشرف عبدالباقي

[فيلم][تورنت][تحميل][اطلعولي بره][2018][1080p][Web-DL] 1 arabp2p.com
 الفيلم المصري اطلعولي بره ( 2018 )
نسخة خام غير معدلة قمت بسحبها من موقع netflix
اخراج: وائل إحسان
تمثيل: كريم محمود عبدالعزيز , خالد الصاوي , بيومي فؤاد , أحمد فتحي , ملك قورة , أشرف عبدالباقي
تدور أحداث الفيلم في إطار من الكوميديا حول شخص يعيش في حارة شعبية، يجد في أحد الأيام كتاب اسمه (إطلعولي بره)، يتحدث عن وجود شخصيات بداخل كل فرد، وعندما يقرأه هذا الشخص، تخرج له عدد من الشخصيات تسيطر على حياته وقراراته .

[فيلم][تورنت][تحميل][اطلعولي بره][2018][1080p][Web-DL] 2 arabp2p.com

[فيلم][تورنت][تحميل][اطلعولي بره][2018][1080p][Web-DL] 3 arabp2p.com
((معلومات الاصدار))

Code
Format                      : MPEG-4
Format profile              : Base Media
Codec ID                    : isom (isom/iso2/avc1/mp41)
File size                   : 3.76 GiB
Duration                    : 1 h 29 min
Overall bit rate            : 6 018 kb/s
Writing application         : FlixGrab Plus

Video
ID                          : 1
Format                      : AVC
Format/Info                 : Advanced Video Codec
Format profile              : High@L4
Format settings             : CABAC / 3 Ref Frames
Format settings, CABAC      : Yes
Format settings, ReFrames   : 3 frames
Codec ID                    : avc1
Codec ID/Info               : Advanced Video Coding
Duration                    : 1 h 29 min
Bit rate                    : 5 886 kb/s
Width                       : 1 920 pixels
Height                      : 1 080 pixels
Display aspect ratio        : 16:9
Frame rate mode             : Constant
Frame rate                  : 25.000 FPS
Color space                 : YUV
Chroma subsampling          : 4:2:0
Bit depth                   : 8 bits
Scan type                   : Progressive
Bits/(Pixel*Frame)          : 0.114
Stream size                 : 3.68 GiB (98%)
Codec configuration box     : avcC

Audio
ID                          : 2
Format                      : E-AC-3
Format/Info                 : Enhanced AC-3
Commercial name             : Dolby Digital Plus
Codec ID                    : ec-3
Duration                    : 1 h 29 min
Bit rate mode               : Constant
Bit rate                    : 128 kb/s
Channel(s)                  : 2 channels
Channel layout              : L R
Sampling rate               : 48.0 kHz
Frame rate                  : 31.250 FPS (1536 SPF)
Bit depth                   : 16 bits
Compression mode            : Lossy
Stream size                 : 81.9 MiB (2%)
Language                    : Arabic
Service kind                : Complete Main
Default                     : Yes
Alternate group             : 1



[فيلم][تورنت][تحميل][اطلعولي بره][2018][1080p][Web-DL] 4 arabp2p.com
((البوستر))
[فيلم][تورنت][تحميل][اطلعولي بره][2018][1080p][Web-DL] 5 arabp2p.com

[فيلم][تورنت][تحميل][اطلعولي بره][2018][1080p][Web-DL] 6 arabp2p.com
((الممثلون))
[فيلم][تورنت][تحميل][اطلعولي بره][2018][1080p][Web-DL] 7 arabp2p.com

[فيلم][تورنت][تحميل][اطلعولي بره][2018][1080p][Web-DL] 8 arabp2p.com
((لقطات من المحتوى))
[فيلم][تورنت][تحميل][اطلعولي بره][2018][1080p][Web-DL] 9 arabp2p.com
[فيلم][تورنت][تحميل][اطلعولي بره][2018][1080p][Web-DL] 10 arabp2p.com
[فيلم][تورنت][تحميل][اطلعولي بره][2018][1080p][Web-DL] 11 arabp2p.com
[فيلم][تورنت][تحميل][اطلعولي بره][2018][1080p][Web-DL] 12 arabp2p.com
[فيلم][تورنت][تحميل][اطلعولي بره][2018][1080p][Web-DL] 13 arabp2p.com
[فيلم][تورنت][تحميل][اطلعولي بره][2018][1080p][Web-DL] 14 arabp2p.com
[فيلم][تورنت][تحميل][اطلعولي بره][2018][1080p][Web-DL] 15 arabp2p.com

[فيلم][تورنت][تحميل][اطلعولي بره][2018][1080p][Web-DL] 16 arabp2p.com
((مشاهدة ممتعه))
12 files