Raid 2018 مترجم 1080p Bluray أكشن وجريمة أجاى ديفجان

3.04 GB |
التحميل : 88 |
التراكر : داخلي |
7 / 0 ( 70) |
08/01/2019

محمد كامل
nemr23@arabp2p.com
الرتبه Tracker Moderator
المرفوعات: 174
النقاط: 587,635.26
تاريخ التسجيل: 29/08/2014
nemr23 غير متصل




Raid 2018 مترجم 1080p Bluray أكشن وجريمة  أجاى ديفجان تحميل تورنت 1 arabp2p.com





فيلم الأكشن والجريمة

Raid 2018

بطولة
أجاى ديفجان
اليانا دى كروز

قصة الفيلم
استنادًا على قصة حقيقية جرت خلال حقبة الثمانينات، تتركز أحداث الفيلم حول آماي باتنايك،
محقق متخصص في ضريبة الدخل، وشخص مستقيم في عمله ودومًا ما يدفع ثمن استقامته، لكنه في نفس الوقت
يحقق نجاحات كبيرة في عمله، حتى يتم تكليف تاواج مرهوب الجانب في أووتار براديش.


نسخة مترجمة 1080p Bluray بمساحة 3.4 جيجا


Raid 2018 مترجم 1080p Bluray أكشن وجريمة  أجاى ديفجان تحميل تورنت 2 arabp2p.com

Raid 2018 مترجم 1080p Bluray أكشن وجريمة  أجاى ديفجان تحميل تورنت 3 arabp2p.com

Raid 2018 مترجم 1080p Bluray أكشن وجريمة  أجاى ديفجان تحميل تورنت 4 arabp2p.com
General
Raid 2018 - 1080p Bluray -by.nemr23.mp4
Format                      : MPEG-4
Format profile              : Base Media
Codec ID                    : isom (isom/iso2/avc1/mp41)
File size                   : 3.04 GiB
Duration                    : 2 h 0 min
Overall bit rate mode       : Variable
Overall bit rate            : 3 599 kb/s
Encoded date                : UTC 1970-01-01 00:00:00
Tagged date                 : UTC 1970-01-01 00:00:00
Writing application         : Lavf52.84.0

Video
ID                          : 1
Format                      : AVC
Format/Info                 : Advanced Video Codec
Format profile              : High@L5
Format settings             : CABAC / 5 Ref Frames
Format settings, CABAC      : Yes
Format settings, ReFrames   : 5 frames
Format settings, GOP        : M=4, N=13
Codec ID                    : avc1
Codec ID/Info               : Advanced Video Coding
Duration                    : 2 h 0 min
Bit rate                    : 3 453 kb/s
Width                       : 1 920 pixels
Height                      : 1 080 pixels
Display aspect ratio        : 16:9
Frame rate mode             : Constant
Frame rate                  : 24.000 FPS
Color space                 : YUV
Chroma subsampling          : 4:2:0
Bit depth                   : 8 bits
Scan type                   : Progressive
Bits/(Pixel*Frame)          : 0.069
Stream size                 : 2.90 GiB (95%)
Writing library             : x264 core 110
Encoding settings           : cabac=1 / ref=5 / deblock=1:0:0 / *censored*yse=0x3:0x133 / me=hex / subme=8 / psy=1 / psy_rd=1.00:0.00 / mixed_ref=1 / me_range=16 / chroma_me=0 / trellis=1 / 8x8dct=1 / cqm=0 / deadzone=21,11 / fast_pskip=1 / chroma_qp_offset=-2 / threads=8 / sliced_threads=0 / nr=0 / decimate=1 / interlaced=0 / constrained_intra=0 / bframes=3 / b_pyramid=0 / b_adapt=0 / b_bias=0 / direct=3 / weightb=1 / open_gop=0 / weightp=0 / keyint=13 / keyint_min=7 / scenecut=0 / intra_refresh=0 / rc_lookahead=13 / rc=abr / mbtree=1 / bitrate=3453 / ratetol=1.0 / qcomp=0.00 / qpmin=10 / qpmax=51 / qpstep=4 / ip_ratio=1.41 / aq=1:1.00
Encoded date                : UTC 1970-01-01 00:00:00
Tagged date                 : UTC 1970-01-01 00:00:00
Codec configuration box     : avcC

Audio
ID                          : 2
Format                      : AAC
Format/Info                 : Advanced Audio Codec
Format profile              : LC
Codec ID                    : mp4a-40-2
Duration                    : 2 h 0 min
Bit rate mode               : Variable
Bit rate                    : 165 kb/s
Channel(s)                  : 2 channels
Channel positions           : Front: L R
Sampling rate               : 48.0 kHz
Frame rate                  : 46.875 FPS (1024 SPF)
Compression mode            : Lossy
Stream size                 : 143 MiB (5%)
Encoded date                : UTC 1970-01-01 00:00:00
Tagged date                 : UTC 1970-01-01 00:00:00


Raid 2018 مترجم 1080p Bluray أكشن وجريمة  أجاى ديفجان تحميل تورنت 5 arabp2p.com

Raid 2018 مترجم 1080p Bluray أكشن وجريمة  أجاى ديفجان تحميل تورنت 6 arabp2p.com

Raid 2018 مترجم 1080p Bluray أكشن وجريمة  أجاى ديفجان تحميل تورنت 7 arabp2p.com

Raid 2018 مترجم 1080p Bluray أكشن وجريمة  أجاى ديفجان تحميل تورنت 8 arabp2p.com

Raid 2018 مترجم 1080p Bluray أكشن وجريمة  أجاى ديفجان تحميل تورنت 9 arabp2p.com

Raid 2018 مترجم 1080p Bluray أكشن وجريمة  أجاى ديفجان تحميل تورنت 10 arabp2p.com

Raid 2018 مترجم 1080p Bluray أكشن وجريمة  أجاى ديفجان تحميل تورنت 11 arabp2p.com

Raid 2018 مترجم 1080p Bluray أكشن وجريمة  أجاى ديفجان تحميل تورنت 12 arabp2p.com

Raid 2018 مترجم 1080p Bluray أكشن وجريمة  أجاى ديفجان تحميل تورنت 13 arabp2p.com

Raid 2018 مترجم 1080p Bluray أكشن وجريمة  أجاى ديفجان تحميل تورنت 14 arabp2p.com
11 files