Ok Jaanu (2017) Hindi BluRay 1080p + ملف الترجمه

4.38 GB |
التحميل : 26 |
التراكر : خارجي |
4 / 1 |
06/01/2019

abdullahhh@arabp2p.com
الرتبه Members
المرفوعات: 7
النقاط: 1,089.50
تاريخ التسجيل: 12/04/2018
abdullahhh غير متصل




Ok Jaanu (2017) Hindi BluRay 1080p + ملف الترجمه تحميل تورنت 1 arabp2p.com

Ok Jaanu (2017) Hindi BluRay 1080p + ملف الترجمه تحميل تورنت 2 arabp2p.com

OK Jaanu 2017

Ok Jaanu (2017) Hindi BluRay 1080p + ملف الترجمه تحميل تورنت 3 arabp2p.com

معلومات عن الفيلم

اللغة : الهندية
النوع : دراما • رومانسية
التقييم : 5.1 من 10
المدة : 02:16:11
الجودة : 1080 BluRay
تاريخ العرض: 13 يناير 2017
ﺇﺧﺮاﺝ: شاد علي
ﺗﺄﻟﻴﻒ: ماني راتنام
طاقم العمل: شيرداه كابور  أديتا روي كابور  نصر الدين شاه  سانجاي جورباكساني  ليلا سامسون


Ok Jaanu (2017) Hindi BluRay 1080p + ملف الترجمه تحميل تورنت 4 arabp2p.com

Video
Format : AVC
Format/Info : Advanced Video Codec
Format profile : High@L4.1
Format settings, CABAC : Yes
Format settings, ReFrames : 5 frames
Codec ID : V_MPEG4/ISO/AVC
Duration : 2 h 16 min
Bit rate : 4 150 kb/s
Width : 1 920 pixels
Height : 800 pixels
Display aspect ratio : 2.40:1
Frame rate mode : Constant
Frame rate : 24.000 FPS
Color space : YUV
Chroma subsampling : 4:2:0
Bit depth : 8 bits
Scan type : Progressive
Bits/(Pixel*Frame) : 0.113
Stream size : 3.94 GiB (90%)
Title : Ok Jaanu---Pasha@Hon3yHD

Audio
Format : AC-3
Format/Info : Audio Coding 3
Mode extension : CM (complete main)
Format settings, Endianness : Big
Codec ID : A_AC3
Duration : 2 h 16 min
Bit rate mode : Constant
Bit rate : 448 kb/s
Channel(s) : 6 channels
Channel positions : Front: L C R, Side: L R, LFE
Sampling rate : 48.0 kHz
Frame rate : 31.250 FPS (1536 spf)
Bit depth : 16 bits
Compression mode : Lossy
Stream size : 436 MiB (10%)
Title : Hindi---Pasha@Hon3yHD
Language : Hindi
Default : Yes


قصه الفيلم


(عدي) و(تارا) ينتقلان إلى (مومباي) لتحقيق أحلامهما. لكن علاقتهما يحيطها الخطر بعدما تسحبهما حياتهما المهنية بعيدًا عن الرومانسية، فيدخلان صراعًا قاسيًا للاختيار بين طموحهما وقلوبهما.

Ok Jaanu (2017) Hindi BluRay 1080p + ملف الترجمه تحميل تورنت 5 arabp2p.com

Ok Jaanu (2017) Hindi BluRay 1080p + ملف الترجمه تحميل تورنت 6 arabp2p.com
Ok Jaanu (2017) Hindi BluRay 1080p + ملف الترجمه تحميل تورنت 7 arabp2p.com
Ok Jaanu (2017) Hindi BluRay 1080p + ملف الترجمه تحميل تورنت 8 arabp2p.com
Ok Jaanu (2017) Hindi BluRay 1080p + ملف الترجمه تحميل تورنت 9 arabp2p.com
اتمنى لكم مشاهده رائعه
ودعم السيد لاطول فتره ممكنه
2 files