3D Saamri (1985) DVD9 with arabic sub

6.68 GB |
التحميل : 16 |
التراكر : داخلي |
0 / 0 ( 5) |
06/12/2016

Computer Systems Engineer
RAMBO23@arabp2p.com
الرتبه Active Member
المرفوعات: 26
النقاط: 15,010.84
تاريخ التسجيل: 01/09/2014
RAMBO23 غير متصل




3D Saamri (1985)  DVD9 with arabic sub تحميل تورنت 1 arabp2p.com

يسرني أن أقدم لكم
فيلم الرعب والإثارة
3D Saamri (1985)
3D Saamri (1985)  DVD9 with arabic sub تحميل تورنت 2 arabp2p.com
3D Saamri (1985)  DVD9 with arabic sub تحميل تورنت 3 arabp2p.com
ترجمة :
عمرواحمدمحمد RAMBO23
3D Saamri (1985)  DVD9 with arabic sub تحميل تورنت 4 arabp2p.com
http://www.imdb.com/title/tt0260335/
3D Saamri (1985)  DVD9 with arabic sub تحميل تورنت 5 arabp2p.com
3D Saamri (1985)  DVD9 with arabic sub تحميل تورنت 6 arabp2p.com
3D Saamri (1985)  DVD9 with arabic sub تحميل تورنت 7 arabp2p.com
3D Saamri (1985)  DVD9 with arabic sub تحميل تورنت 8 arabp2p.com
3D Saamri (1985)  DVD9 with arabic sub تحميل تورنت 9 arabp2p.com
3D Saamri (1985)  DVD9 with arabic sub تحميل تورنت 10 arabp2p.com
3D Saamri (1985)  DVD9 with arabic sub تحميل تورنت 11 arabp2p.com
3D Saamri (1985)  DVD9 with arabic sub تحميل تورنت 12 arabp2p.com
3D Saamri (1985)  DVD9 with arabic sub تحميل تورنت 13 arabp2p.com
3D Saamri (1985)  DVD9 with arabic sub تحميل تورنت 14 arabp2p.com
3D Saamri (1985)  DVD9 with arabic sub تحميل تورنت 15 arabp2p.com
3D Saamri (1985)  DVD9 with arabic sub تحميل تورنت 16 arabp2p.com
3D Saamri (1985)  DVD9 with arabic sub تحميل تورنت 17 arabp2p.com
3D Saamri (1985)  DVD9 with arabic sub تحميل تورنت 18 arabp2p.com
3D Saamri (1985)  DVD9 with arabic sub تحميل تورنت 19 arabp2p.com
General
source: 3D Saamri (1985)  DVD9 Untouched PAL {EROS}

Format                      : MPEG-PS
File size                   : 6.68 GiB
Duration                    : 1 h 41 min
Overall bit rate mode       : Constant
Overall bit rate            : 9 378 kb/s

Video
ID                          : 224 (0xE0)
Format                      : MPEG Video
Format version              : Version 2
Format profile              : Main@Main
Format settings, BVOP       : No
Format settings, Matrix     : Custom
Format settings, GOP        : N=15
Duration                    : 1 h 41 min
Bit rate mode               : Constant
Bit rate                    : 9 000 kb/s
Width                       : 720 pixels
Height                      : 576 pixels
Display aspect ratio        : 16:9
Frame rate                  : 25.000 FPS
Standard                    : PAL
Color space                 : YUV
Chroma subsampling          : 4:2:0
Bit depth                   : 8 bits
Scan type                   : Progressive
Compression mode            : Lossy
Bits/(Pixel*Frame)          : 0.868
Time code of first frame    : 00:00:00:00
Time code source            : Group of pictures header
GOP, Open/Closed            : Open
GOP, Open/Closed of first f : Closed
Stream size                 : 6.38 GiB (96%)

Audio
ID                          : 189 (0xBD)-128 (0x80)
Format                      : AC-3
Format/Info                 : Audio Coding 3
Mode extension              : CM (complete main)
Format settings, Endianness : Big
Muxing mode                 : DVD-Video
Duration                    : 1 h 41 min
Bit rate mode               : Constant
Bit rate                    : 224 kb/s
Channel(s)                  : 2 channels
Channel positions           : Front: L R
Sampling rate               : 48.0 kHz
Frame rate                  : 31.250 FPS (1536 spf)
Bit depth                   : 16 bits
Compression mode            : Lossy
Delay relative to video     : -5 ms
Stream size                 : 163 MiB (2%)




3D Saamri (1985)  DVD9 with arabic sub تحميل تورنت 20 arabp2p.com
16 files