انقر هنا لمشاهدة النسخة الكاملة للصفحة

تورنت - Hansel and Gretel Witch Hunters 2013 UNRATED 1080p x264 - alrmothe

جودة عالية HD الحجم : 6.65 GB التراكر: خارجي المتصلين : 13,6  اكتمل ( 186 ) 19/05/2013 تحميل التورنت

.

Movies : Action : BluRay : English


Hansel and Gretel Witch Hunters 2013 UNRATED 1080p x264 - alrmothe



 1 arabp2p.com

 2 arabp2p.com


 3 arabp2p.com
IMDB:
http://www.imdb.com/title/tt1235522/
Genre: Action,Fantasy,Horror
Source:Blu-ray Disc
Language:English
File size:6.60 GiB
Overall bit rate:9645 kbps
Duration:1h 37mn
Encoded / Released By:alrmothe


Storyline:The siblings Hansel and Gretel are left alone in the woods by their father and captured by a dark witch in a candy house. However they kill the witch and escape from the spot. Years later, the orphans have become famous witch hunters.

القصة :تدور أحداث الفيلم الشقيقين هانسيل وجريتيل يشكلان فريق لصيد الساحرات، حيث يتم تعقبهم والتخلص منهم في جميع أنحاء العالم، بالطبع مع كثير من المغامرات والمطاردات والرعب أحيانًا.

 4 arabp2p.com

cast
Jeremy Renner ... Hansel
Gemma Arterton ... Gretel
Famke Janssen ... Muriel
Pihla Viitala ... Mina
Derek Mears ... Edward
Robin Atkin Downes... Edward (voice)
Ingrid Bolsø Berdal... Horned Witch
Joanna Kulig ... Red Haired Witch
Thomas Mann ... Ben

بطولة
 5 arabp2p.com

 6 arabp2p.com
Video Information
Format Matroska
Format : AVC
Format/Info : Advanced Video Codec
Format profile : High@L4.1
Format settings, CABAC : Yes
Format settings, ReFrames : 2 frames  
Codec ID : V_MPEG4/ISO/AVC  
Bit rate: 9000Kbps
Display aspect ratio 2:40:1
Frame rate : 23.976 fps
Color space : YUV
Chroma subsampling : 4:2:0
Bit depth : 8 bits
Scan type : Progressive
Bits/(Pixel*Frame) : 0.244
Stream size: 6.03 GiB
Resolution:1920x800


Audio Information:
Format: AC3
Bit rate 640 Kbps
Channel(s) : 6 channels
Channel positions:Front: L C R, Side: L R, LFE
Sampling rate: 48.0 KHz
Bit depth: 16 bits
Compression mode: Lossy
Stream size:448 GiB
Language:English


مقطع لمعاينة الجودة
sample:yes


كل الترجمات في ملف اسمه sub
SUB:Arabic,English



Screenshots
 7 arabp2p.com
 8 arabp2p.com
 9 arabp2p.com
 10 arabp2p.com
 11 arabp2p.com

لأفضل جودة استخدم برنامجKMPlayer
Use KMPlayer for the best quality





Code

http://fr33dom.h33t.com:3310/announce
http://121.14.98.151:9090/announce
http://tracker.torrentbay.to:6969/announce
http://exodus.desync.com:6969/announce
http://94.228.192.98/announce
http://tracker.coppersurfer.tk:6969/announce
udp://tracker.istole.it:80/announce
udp://fr33dom.h33t.com:3310/announce








Trailer
http://www.youtube.com/watch?v=9246msCh7x4





.

الملفات ذات العلاقة بـ ( Hansel and Gretel Witch Hunters 2013 UNRATED 1080p x264 - alrmothe )
[Hansel and Gretel: Witch Hunters 2013 [BD 1432 927 4.37 GB
Hansel.and.Gretel.Get.Baked.2013.1080p.BluRay.x264-LiViDiTY [PublicHD] 9 62 6.55 GB
Hansel.And.Gretel.Get.Baked.2013.HDRiP.AC3-2.0.XviD-AXED 4 2 1.28 GB
World War Z 2013 Unrated Cut 1080p Bluray x264 DTS - alrmothe 13 3 12.51 GB
The Last Stand 2013 1080p x264 ACC - alrmothe 35 19 5.77 GB
zin123تمت المشاهدة , فلم خطيررررر , ويستاهل السهرة O:- الجودة خرافيه , والترجمة متطابقة , ابداع شكراً لك يا عزيزي , ولاتحرمنا مثل هـ الشغلات الذهبية . :)
zin123التورنت في بدايته احتاج وقت لكي يكتمل التحميل عندي وانا جالس ارفع اكثر مما احمل :smile: http://im32.gulfup.com/Xej4W.png
zin123تسلم الانامل يا بطل ... وجاري التحميل على الفور ,, واي شيء منك معناها الترجمة والجودة والمتعة ,, ومتابعين
hafid24000 شكرا.........جزيلا ملف الترجمة http://turbobit.net/mpw4ucf7gxx7.html

الرئيسية - قائمة ملفات التورنت - فيسبوك