انقر هنا لمشاهدة النسخة الكاملة للصفحة

تورنت - Goodbye.Single.2016.Korean.720p-Subbed Arabic

افلام آسيوية الحجم : 1.17 GB التراكر: داخلي المتصلين : 0,0  اكتمل ( 32 ) 30/11/2016 تحميل التورنت

 1 arabp2p.com

Goodbye.Single.2016.Korean.720p-Subbed Arabic

مع الترجمة العربية

 2 arabp2p.com

 3 arabp2p.com

ﻓﻴﻠﻢ كوريا الشمالية 119 دقيقة ﺗﻢ ﻋﺮﺿﻪ
تاريخ العرض: 29 جوان 2016
تصنيف العمل: كويدي - درامي
ﺇﺧﺮاﺝ: كيم تاي-غون (مخرج)
ﺗﺄﻟﻴﻒ: لي جونغ-اون (وسيناريو وحوار)
طاقم العمل: كيم هي-سو   ما دونغ-سيوك   كيم هيون-سو   كيم يونغ-جيون   سيو هيون-جين


 4 arabp2p.com



 5 arabp2p.com

قوو جو يون (Kim Hye-Soo) مُمثلة ناجحة بكل شيء ما عدا تكوين عائلة، و لكي تحظى بعائلة تقوم بتنفيذ خطة غير عادية.

 6 arabp2p.com


Code
Format                      : MPEG-4
Format profile              : Base Media
Codec ID                    : isom (isom/avc1)
File size                   : 1.17 GiB
Duration                    : 2 h 0 min
Overall bit rate mode       : Variable
Overall bit rate            : 1 395 kb/s
Encoded date                : UTC 2016-11-04 06:49:56
Tagged date                 : UTC 2016-11-04 06:49:56

Video
ID                          : 1
Format                      : AVC
Format/Info                 : Advanced Video Codec
Format profile              : High@L3.1
Format settings, CABAC      : Yes
Format settings, ReFrames   : 4 frames
Codec ID                    : avc1
Codec ID/Info               : Advanced Video Coding
Duration                    : 2 h 0 min
Bit rate                    : 1 243 kb/s
Maximum bit rate            : 5 103 kb/s
Width                       : 1 280 pixels
Height                      : 720 pixels
Display aspect ratio        : 16:9
Frame rate mode             : Constant
Frame rate                  : 29.970 (30000/1001) FPS
Color space                 : YUV
Chroma subsampling          : 4:2:0
Bit depth                   : 8 bits
Scan type                   : Progressive
Bits/(Pixel*Frame)          : 0.045
Stream size                 : 1.04 GiB (89%)
Writing library             : x264 core 146 r2538 121396c
Encoding settings           : cabac=1 / ref=3 / deblock=1:0:0 / *censored*yse=0x3:0x113 / me=hex / subme=7 / psy=1 / psy_rd=1.00:0.00 / mixed_ref=1 / me_range=16 / chroma_me=1 / trellis=1 / 8x8dct=1 / cqm=0 / deadzone=21,11 / fast_pskip=1 / chroma_qp_offset=-2 / threads=36 / lookahead_threads=5 / sliced_threads=0 / nr=0 / decimate=1 / interlaced=0 / bluray_compat=0 / constrained_intra=0 / bframes=3 / b_pyramid=2 / b_adapt=1 / b_bias=0 / direct=1 / weightb=1 / open_gop=0 / weightp=2 / keyint=300 / keyint_min=29 / scenecut=40 / intra_refresh=0 / rc_lookahead=40 / rc=2pass / mbtree=1 / bitrate=1243 / ratetol=1.0 / qcomp=0.60 / qpmin=0 / qpmax=69 / qpstep=4 / cplxblur=20.0 / qblur=0.5 / ip_ratio=1.40 / aq=1:1.00
Encoded date                : UTC 2016-11-04 06:49:56
Tagged date                 : UTC 2016-11-04 06:50:23

Audio
ID                          : 2
Format                      : AAC
Format/Info                 : Advanced Audio Codec
Format profile              : LC
Codec ID                    : 40
Duration                    : 2 h 0 min
Bit rate mode               : Variable
Bit rate                    : 148 kb/s
Maximum bit rate            : 199 kb/s
Channel(s)                  : 2 channels
Channel positions           : Front: L R
Sampling rate               : 44.1 kHz
Frame rate                  : 43.066 FPS (1024 spf)
Compression mode            : Lossy
Stream size                 : 128 MiB (11%)
Language                    : English
Encoded date                : UTC 2016-11-04 05:48:03
Tagged date                 : UTC 2016-11-04 06:50:23



 7 arabp2p.com

 8 arabp2p.com

 9 arabp2p.com

 10 arabp2p.com

 11 arabp2p.com

 12 arabp2p.com




 13 arabp2p.com


الملفات ذات العلاقة بـ ( Goodbye.Single.2016.Korean.720p-Subbed Arabic )
Tunnel.2016.Korean.720p-Subbed Arabic 1 0 1.27 GB
Train to Busan 2016 Korean 720p -Subbed Arabic 1 0 848.52 MB
A Violent Prosecutor 2016 Korean 720p HDRip-Subbed Arabic 1 0 1.17 GB
Under the Shadow 2016 PERSIAN 720p-Subbed Arabic 2 0 598.85 MB
Phantom Detective.2016.720p.HDRip-Subbed Arabic 2 0 2.50 GB
ahmed1972يعطيك العافية تسلم الايادي شكرا
Hokagehttp://www.arabp2p.com/gifs/4.gif

الرئيسية - قائمة ملفات التورنت - فيسبوك