انقر هنا لمشاهدة النسخة الكاملة للصفحة

تورنت - Ae Dil Hai Mushkil (2016) Hindi BluRay 1080p x264 AC3 5.1 ESub...Hon3y

افلام هنديه الحجم : 4.43 GB التراكر: داخلي المتصلين : 0,0  اكتمل ( 29 ) 02/01/2017 تحميل التورنت

Ae Dil Hai Mushkil (2016) Hindi BluRay 1080p x264 AC3 5.1 ESub...Hon3y


السلام عليكم ورحمة الله وبركاته

Ae Dil Hai Mushkil  (2016) إنه لقلب مُشتبك

 1 arabp2p.com


 2 arabp2p.com


ﻓﻴﻠﻢ الهند 155 دقيقة ﺗﻢ ﻋﺮﺿﻪ
    نوع العمل: ﻓﻴﻠﻢ

   تصنيف العمل: ﺩﺭاﻣﺎ ﺭﻭﻣﺎﻧﺴﻲ

  تاريخ العرض: الإمارات العربية المتحدة [27 اكتوبر 2016]

   اللغة: الهندية

   بلد الإنتاج: الهند

   هل العمل ملون؟: Yes

   مواقع التصوير فرنسا النّمسا المملكة المتّحدة

 3 arabp2p.com
يروي الفيلم حكاية عن الحب من طرف واحد، والرحلة العاطفية
لثلاث شخصيات: آيان (رانبير كابور) واليزيه (أنوشكا شارما)
وسابا (آيشورايا راي باتشان).


طاقم العمل

 4 arabp2p.com


 5 arabp2p.com



:


General
Format                      : Matroska
Format version              : Version 4 / Version 2
File size                   : 4.38 GiB
Duration                    : 2 h 36 min
Overall bit rate            : 3 995 kb/s
Movie name                  : Ae Dil Hai Mushkil---Pasha@Hon3yHD

Video
Format                      : AVC
Format/Info                 : Advanced Video Codec
Format profile              : High@L4.1
Format settings, CABAC      : Yes
Format settings, ReFrames   : 5 frames
Codec ID                    : V_MPEG4/ISO/AVC
Duration                    : 2 h 36 min
Bit rate                    : 3 538 kb/s
Width                       : 1 920 pixels
Height                      : 800 pixels
Display aspect ratio        : 2.40:1
Frame rate mode             : Constant
Frame rate                  : 24.000 FPS
Color space                 : YUV
Chroma subsampling          : 4:2:0
Bit depth                   : 8 bits
Scan type                   : Progressive
Bits/(Pixel*Frame)          : 0.096
Stream size                 : 3.88 GiB (89%)
Title                       : Ae Dil Hai Mushkil---Pasha@Hon3yHD

Audio
Format                      : AC-3
Format/Info                 : Audio Coding 3
Mode extension              : CM (complete main)
Format settings, Endianness : Big
Codec ID                    : A_AC3
Duration                    : 2 h 36 min
Bit rate mode               : Constant
Bit rate                    : 448 kb/s
Channel(s)                  : 6 channels
Channel positions           : Front: L C R, Side: L R, LFE
Sampling rate               : 48.0 kHz
Frame rate                  : 31.250 FPS (1536 spf)
Bit depth                   : 16 bits
Compression mode            : Lossy
Stream size                 : 503 MiB (11%)
Title                       : Pasha@Hon3yHD
Language                    : Hindi
Default                     : Yes





 6 arabp2p.com

 7 arabp2p.com

 8 arabp2p.com

 9 arabp2p.com

 10 arabp2p.com

 11 arabp2p.com

 12 arabp2p.com



الملفات ذات العلاقة بـ ( Ae Dil Hai Mushkil (2016) Hindi BluRay 1080p x264 AC3 5.1 ESub...Hon3y )
Ae Dil Hai Mushkil (2016) 720p Blu-Ray x264 AAC 5.1 ESub -DDR 1 0 3.44 GB
Naam Hai Akira .2016.Hindi.1080p.HDRiP.x264 2 0 2.30 GB
Krrish 3 2013 Hindi HDRip 720p x264 AC3...Hon3y + الترجمة 4 1 3.00 GB
Main Tera Hero 2014 Hindi Bluray 720p x264 DTS...Hon3y 1 0 4.36 GB
Dhan Dhana Dhan Goal 2007 Hindi 720p HDRip x264 AC3...Hon3y 1 0 2.18 GB
egyptfoxتم ايقاف التحميل من هذه النسخة وجاري تحميل النسخة الاخرى الفعالة شكرا لك
w00w الف شكر على الفيلم ... على فكرة لا يوجد سيد سوف احل المشكلة قريب O:-
egyptfoxالف شكر على الفيلم ... على فكرة لا يوجد سيد
salloom55ابي ترجمة عربية متناسقة مع البلوراي

الرئيسية - قائمة ملفات التورنت - فيسبوك