انقر هنا لمشاهدة النسخة الكاملة للصفحة

تورنت - Kaalia 1981 مترجم DVDRip اكشن وجريمة أميتاب وأمجد خان

افلام هنديه الحجم : 1.94 GB التراكر: داخلي المتصلين : 0,0  اكتمل ( 50 ) 21/09/2016 تحميل التورنت

 1 arabp2p.com






فيلم الأكشن والجريمة الرائع

Kaalia 1981

بطولة
الأسطورة أميتاب
أمجد خان
بارفين بابى
بران


ألف شكر للمترجم الكبير
سعد فوزى

تعديل التوقيت وترجمة حصرية للأغانى
أمير سامى

نسخة مترجمة DVDRip x264 بمساحة 1.93 جيجا
غير مضغوطة


قصة الفيلم
كالو (اميتاب) شاب بسيط ساذج يعتمد على اخيه (قدر خان) ولا يتحمل اى مسؤلية
يصاب اخيه بسبب تعطل مكينة المصنع الذى يملكه ساهاني (امجد خان) ويستخدمه غطاء
لتهريب الذهب يطلب كالو 500 روبية لعلاج اخيه من ساهى لكنه يرفض ويطرده مما يجبره على سرقته
ويبلغ ساهى الشرطة عن السرقة ويتم حبس كالو ويتحول فى السجن الى كاليا الذى يسعى لتحطيم
ساهى بأى وسيلة بعد خروجه حتى لو غير شريفة ويستولى على صفقات الذهب فهل ينجح؟



 2 arabp2p.com

 3 arabp2p.com

 4 arabp2p.com

 5 arabp2p.com
General
Complete name                  : arab2bKaalia 1981 - DVDRip x264,by.nemr23.mkv
Format                         : Matroska
Format version                 : Version 4 / Version 2
File size                      : 1.93 GiB
Duration                       : 2h 45mn
Overall bit rate               : 1 671 Kbps
Writing application            : Lavf56.30.100
Writing library                : Lavf56.30.100

Video
ID                             : 1
Format                         : AVC
Format/Info                    : Advanced Video Codec
Format profile                 : Baseline@L3.0
Format settings, CABAC         : No
Format settings, ReFrames      : 1 frame
Codec ID                       : V_MPEG4/ISO/AVC
Duration                       : 2h 45mn
Bit rate                       : 1 318 Kbps
Width                          : 640 pixels
Height                         : 480 pixels
Display aspect ratio           : 4:3
Frame rate mode                : Constant
Frame rate                     : 29.970 fps
Color space                    : YUV
Chroma subsampling             : 4:2:0
Bit depth                      : 8 bits
Scan type                      : Progressive
Bits/(Pixel*Frame)             : 0.143
Stream size                    : 1.53 GiB (79%)
Writing library                : x264 core 146
Encoding settings              : cabac=0 / ref=1 / deblock=1:0:0 / *censored*yse=0x1:0x1 / me=dia / subme=1 / psy=1 / psy_rd=1.00:0.00 / mixed_ref=0 / me_range=16 / chroma_me=1 / trellis=0 / 8x8dct=0 / cqm=0 / deadzone=21,11 / fast_pskip=1 / chroma_qp_offset=0 / threads=3 / lookahead_threads=1 / sliced_threads=0 / nr=0 / decimate=1 / interlaced=0 / bluray_compat=0 / constrained_intra=0 / bframes=0 / weightp=0 / keyint=250 / keyint_min=25 / scenecut=40 / intra_refresh=0 / rc=crf / mbtree=0 / crf=23.0 / qcomp=0.60 / qpmin=0 / qpmax=69 / qpstep=4 / ip_ratio=1.40 / aq=1:1.00
Language                       : English
Default                        : No
Forced                         : No

Audio
ID                             : 2
Format                         : MPEG Audio
Format version                 : Version 1
Format profile                 : Layer 3
Mode                           : Joint stereo
Mode extension                 : MS Stereo
Codec ID                       : A_MPEG/L3
Codec ID/Hint                  : MP3
Duration                       : 2h 45mn
Bit rate mode                  : Constant
Bit rate                       : 320 Kbps
Channel(s)                     : 2 channels
Sampling rate                  : 44.1 KHz
Compression mode               : Lossy
Delay relative to video        : -25ms
Stream size                    : 379 MiB (19%)
Writing library                : Lavc56.34.100 libmp3lame
Default                        : Yes
Forced                         : No

General
Complete name                  : arab2bKaalia 1981 - DVDRip x264,by.nemr23.mkv
Format                         : Matroska
Format version                 : Version 4 / Version 2
File size                      : 1.93 GiB
Duration                       : 2h 45mn
Overall bit rate               : 1 671 Kbps
Writing application            : Lavf56.30.100
Writing library                : Lavf56.30.100

Video
ID                             : 1
Format                         : AVC
Format/Info                    : Advanced Video Codec
Format profile                 : Baseline@L3.0
Format settings, CABAC         : No
Format settings, ReFrames      : 1 frame
Codec ID                       : V_MPEG4/ISO/AVC
Duration                       : 2h 45mn
Bit rate                       : 1 318 Kbps
Width                          : 640 pixels
Height                         : 480 pixels
Display aspect ratio           : 4:3
Frame rate mode                : Constant
Frame rate                     : 29.970 fps
Color space                    : YUV
Chroma subsampling             : 4:2:0
Bit depth                      : 8 bits
Scan type                      : Progressive
Bits/(Pixel*Frame)             : 0.143
Stream size                    : 1.53 GiB (79%)
Writing library                : x264 core 146
Encoding settings              : cabac=0 / ref=1 / deblock=1:0:0 / *censored*yse=0x1:0x1 / me=dia / subme=1 / psy=1 / psy_rd=1.00:0.00 / mixed_ref=0 / me_range=16 / chroma_me=1 / trellis=0 / 8x8dct=0 / cqm=0 / deadzone=21,11 / fast_pskip=1 / chroma_qp_offset=0 / threads=3 / lookahead_threads=1 / sliced_threads=0 / nr=0 / decimate=1 / interlaced=0 / bluray_compat=0 / constrained_intra=0 / bframes=0 / weightp=0 / keyint=250 / keyint_min=25 / scenecut=40 / intra_refresh=0 / rc=crf / mbtree=0 / crf=23.0 / qcomp=0.60 / qpmin=0 / qpmax=69 / qpstep=4 / ip_ratio=1.40 / aq=1:1.00
Language                       : English
Default                        : No
Forced                         : No

Audio
ID                             : 2
Format                         : MPEG Audio
Format version                 : Version 1
Format profile                 : Layer 3
Mode                           : Joint stereo
Mode extension                 : MS Stereo
Codec ID                       : A_MPEG/L3
Codec ID/Hint                  : MP3
Duration                       : 2h 45mn
Bit rate mode                  : Constant
Bit rate                       : 320 Kbps
Channel(s)                     : 2 channels
Sampling rate                  : 44.1 KHz
Compression mode               : Lossy
Delay relative to video        : -25ms
Stream size                    : 379 MiB (19%)
Writing library                : Lavc56.34.100 libmp3lame
Default                        : Yes
Forced                         : No


[img] 6 arabp2p.com[/img]

 7 arabp2p.com

 8 arabp2p.com

 9 arabp2p.com

 10 arabp2p.com

 11 arabp2p.com

 12 arabp2p.com

 13 arabp2p.com

 14 arabp2p.com

 15 arabp2p.com

 16 arabp2p.com

 17 arabp2p.com

 18 arabp2p.com




الملفات ذات العلاقة بـ ( Kaalia 1981 مترجم DVDRip اكشن وجريمة أميتاب وأمجد خان )
Parvarish.1977 مترجم DVDRip.x264.AC3 أكشن وجريمة أميتاب وفينود كانا 2 0 2.36 GB
Yaarana 1981 مترجم DvDRip رمانسى أميتاب ونيتو سينج 3 0 1.85 GB
Adalat.1976 مترجم DvDrip X264 اكشن نادر أميتاب ووحيدة رحمان 1 0 2.93 GB
Insaniyat Ke Dushman 1987 مترجم DvDRip اكشن دارمندرا وامجد خان 1 0 2.60 GB
Dangal.2016 مترجم HDRip اكشن رياضى عامر خان 4 0 2.56 GB
nemr23 تسلم ايديك واضافة مميزة , شكراً لك . الله يكرمك يا غالى دايما تسعدنى متابعتك الف شكر لدعمك بالسيد بوكس نورت الموضوع
nemr23 تسلم ايدك أستاذ محمد على الفيلم المقترح، طبعاً للأسطورة أميتاب، راح يكون مميز بالتأكيد عزيزي، بمجرد أنك تشوف أميتاب يتكلم فقط تشعر بالسعادة. ربنا يخليك يا ابو حميد عندك حق اميتاب اعماله تسعدنا دائما فيلم كاليا متميز وانا شاهدته فى السينما 1987 وله ذكريات جميلة عندنا فى مصر وقتها كانت شعبية اميتاب راهيبة
nemr23 تسلم الايادي يابطل دايما يسعدنى مرورك يا غالى نورت الموضوع
zin123تسلم ايديك واضافة مميزة , شكراً لك .
lalmeedaتسلم ايدك أستاذ محمد على الفيلم المقترح، طبعاً للأسطورة أميتاب، راح يكون مميز بالتأكيد عزيزي، بمجرد أنك تشوف أميتاب يتكلم فقط تشعر بالسعادة.
التميمي تسلم الايادي يابطل

الرئيسية - قائمة ملفات التورنت - فيسبوك