انقر هنا لمشاهدة النسخة الكاملة للصفحة

تورنت - The.Last.Princess.2016.KOREAN.1080p.HDRip.x264-Subbed Arabic

افلام آسيوية الحجم : 945.29 MB التراكر: داخلي المتصلين : 0,0  اكتمل ( 17 ) 22/11/2016 تحميل التورنت

 1 arabp2p.com

The.Last.Princess.2016.KOREAN.1080p.HDRip.x264-Subbed Arabic

مع الترجمة العربية

 2 arabp2p.com

 3 arabp2p.com

ﻓﻴﻠﻢ كوريا الشمالية 127 دقيقة ﺗﻢ ﻋﺮﺿﻪ
تاريخ العرض: 3 أغسطس 2016
تصنيف العمل: سياسي - رومانسي
ﺇﺧﺮاﺝ: هور جين هو (مخرج)
ﺗﺄﻟﻴﻒ: كوون بي يونغ (قصة وسيناريو وحوار)
طاقم العمل: سانغ هون جيونغ    هاي ايل بارك     مي-ران را


 4 arabp2p.com



 5 arabp2p.com

الأميرة دوك هيي (Son Ye-Jin) هي الأميرة الأخيرة لمملكة جوسون. تحت الإستعمار الياباني، أُخذت كرهينة لدى اليابان. ومع الظروف القاسية في تلك الحقبة الزمنية، ناضلتْ من أجل الحفاظ على الأمل لشعبْ جوسون. جانغ هان (Park Hae-Il) مقاتل لأجل الإستقلال الكوري، مهمته جلبْ الأميرة إلى جوسون.

 6 arabp2p.com


Code
Format profile              : Base Media
Codec ID                    : isom (isom/avc1/iso6)
File size                   : 945 MiB
Duration                    : 2 h 7 min
Overall bit rate mode       : Variable
Overall bit rate            : 1 040 kb/s
Encoded date                : UTC 2016-10-16 11:53:27
Tagged date                 : UTC 2016-10-16 11:53:27

Video
ID                          : 1
Format                      : AVC
Format/Info                 : Advanced Video Codec
Format profile              : High@L4.1
Format settings, CABAC      : Yes
Format settings, ReFrames   : 4 frames
Codec ID                    : avc1
Codec ID/Info               : Advanced Video Coding
Duration                    : 2 h 7 min
Bit rate                    : 978 kb/s
Maximum bit rate            : 6 660 kb/s
Width                       : 1 920 pixels
Height                      : 1 080 pixels
Display aspect ratio        : 16:9
Frame rate mode             : Constant
Frame rate                  : 23.976 (24000/1001) FPS
Color space                 : YUV
Chroma subsampling          : 4:2:0
Bit depth                   : 8 bits
Scan type                   : Progressive
Bits/(Pixel*Frame)          : 0.020
Stream size                 : 884 MiB (94%)
Writing library             : x264 core 148 r2638 7599210
Encoding settings           : cabac=1 / ref=2 / deblock=1:-1:-1 / *censored*yse=0x3:0x113 / me=hex / subme=4 / psy=1 / psy_rd=1.00:0.00 / mixed_ref=1 / me_range=16 / chroma_me=1 / trellis=0 / 8x8dct=1 / cqm=0 / deadzone=21,11 / fast_pskip=1 / chroma_qp_offset=0 / threads=12 / lookahead_threads=3 / sliced_threads=0 / nr=0 / decimate=1 / interlaced=0 / bluray_compat=0 / constrained_intra=0 / bframes=3 / b_pyramid=2 / b_adapt=1 / b_bias=0 / direct=3 / weightb=1 / open_gop=0 / weightp=2 / keyint=240 / keyint_min=23 / scenecut=40 / intra_refresh=0 / rc_lookahead=40 / rc=2pass / mbtree=1 / bitrate=978 / ratetol=1.0 / qcomp=0.60 / qpmin=10 / qpmax=51 / qpstep=4 / cplxblur=20.0 / qblur=0.5 / vbv_maxrate=50000 / vbv_bufsize=50000 / nal_hrd=none / filler=0 / ip_ratio=1.40 / aq=1:1.00
Encoded date                : UTC 2016-10-16 11:53:27
Tagged date                 : UTC 2016-10-16 11:53:39

Audio
ID                          : 2
Format                      : AAC
Format/Info                 : Advanced Audio Codec
Format profile              : HE-AAC / LC
Codec ID                    : 40
Duration                    : 2 h 7 min
Bit rate mode               : Variable
Bit rate                    : 64.0 kb/s
Maximum bit rate            : 113 kb/s
Channel(s)                  : 2 channels
Channel positions           : Front: L R
Sampling rate               : 48.0 kHz / 24.0 kHz
Frame rate                  : 23.438 FPS (1024 spf)
Compression mode            : Lossy
Stream size                 : 58.1 MiB (6%)
Encoded date                : UTC 2016-10-16 10:20:06
Tagged date                 : UTC 2016-10-16 11:53:39



 7 arabp2p.com

 8 arabp2p.com

 9 arabp2p.com

 10 arabp2p.com

 11 arabp2p.com

 12 arabp2p.com





 13 arabp2p.com


الملفات ذات العلاقة بـ ( The.Last.Princess.2016.KOREAN.1080p.HDRip.x264-Subbed Arabic )
Train to Busan 2016 Korean 720p -Subbed Arabic 1 0 848.52 MB
The Wailing (2016) LIMITED 720p BluRay x264-Subbed Arabic 1 0 748.03 MB
House of the Disappeared 2016 HDRip 720p H264 AAC ArabicSub-Lp2p 2 0 1.20 GB
My Sassy Girl (English Subs) (Korean Movie - Yeopgijeogin geunye + الترجمة 144 12 662.09 MB
My.Way.2012.HDRip.x264.AC3-ADiOS 1248 256 1.62 GB
bellatrechebadreddinemerci beaucoup
nemr23الف شكر يا نجم التراكر دائما متميز يا غالى

الرئيسية - قائمة ملفات التورنت - فيسبوك