انقر هنا لمشاهدة النسخة الكاملة للصفحة

تورنت - Tunnel.2016.Korean.720p-Subbed Arabic

افلام آسيوية الحجم : 1.27 GB التراكر: داخلي المتصلين : 0,0  اكتمل ( 42 ) 01/12/2016 تحميل التورنت

 1 arabp2p.com

Tunnel.2016.Korean.720p-Subbed Arabic

مع الترجمة العربية

 2 arabp2p.com

 3 arabp2p.com

ﻓﻴﻠﻢ كوريا الشمالية 126 دقيقة ﺗﻢ ﻋﺮﺿﻪ
تاريخ العرض: 10 أوت 2016
تصنيف العمل: كوراث - إثارة - دراما
ﺇﺧﺮاﺝ: كيم سونج-هون (مخرج)
ﺗﺄﻟﻴﻒ: لي جونغ-اون (سيناريو وحوار)
طاقم العمل: ها جونغ-وو   باي دو-نا   أوه دال-سوو   شين جونغ-كون   نام جي-هيون


 4 arabp2p.com



 5 arabp2p.com

لي جونغ سوو يقود سيارتهُ عائدًا للمنزل في عيد ابنته. وأثناء القيادة من خلال نفق يعبر من خلال الجبال، يحدث ما لا تحمد عقباه، حيث ينهار النفق. عندما يستعيد لي جونغ سوو وعيه، يجد نفسه محاصرًا داخل سيارته. دُفنت سيارتهُ تحتَ آلاف الأطنان من الخرسانة والحُطام. كل ما لديهِ داخل السيارة هوَ هاتفه المحمول، وزجاجتين من المياه وكعكة عيد ميلاد ابنته.

 6 arabp2p.com


Code
Format                      : MPEG-4
Format profile              : Base Media
Codec ID                    : isom (isom/avc1)
File size                   : 1.27 GiB
Duration                    : 2 h 6 min
Overall bit rate mode       : Variable
Overall bit rate            : 1 436 kb/s
Encoded date                : UTC 2016-10-29 13:54:19
Tagged date                 : UTC 2016-10-29 13:54:19

Video
ID                          : 1
Format                      : AVC
Format/Info                 : Advanced Video Codec
Format profile              : High@L3.1
Format settings, CABAC      : Yes
Format settings, ReFrames   : 4 frames
Codec ID                    : avc1
Codec ID/Info               : Advanced Video Coding
Duration                    : 2 h 6 min
Bit rate                    : 1 299 kb/s
Maximum bit rate            : 9 283 kb/s
Width                       : 1 280 pixels
Height                      : 720 pixels
Display aspect ratio        : 16:9
Frame rate mode             : Constant
Frame rate                  : 23.976 (24000/1001) FPS
Color space                 : YUV
Chroma subsampling          : 4:2:0
Bit depth                   : 8 bits
Scan type                   : Progressive
Bits/(Pixel*Frame)          : 0.059
Stream size                 : 1.15 GiB (90%)
Writing library             : x264 core 146 r2538 121396c
Encoding settings           : cabac=1 / ref=3 / deblock=1:0:0 / *censored*yse=0x3:0x113 / me=hex / subme=7 / psy=1 / psy_rd=1.00:0.00 / mixed_ref=1 / me_range=16 / chroma_me=1 / trellis=1 / 8x8dct=1 / cqm=0 / deadzone=21,11 / fast_pskip=1 / chroma_qp_offset=-2 / threads=30 / lookahead_threads=5 / sliced_threads=0 / nr=0 / decimate=1 / interlaced=0 / bluray_compat=0 / constrained_intra=0 / bframes=3 / b_pyramid=2 / b_adapt=1 / b_bias=0 / direct=1 / weightb=1 / open_gop=0 / weightp=2 / keyint=240 / keyint_min=23 / scenecut=40 / intra_refresh=0 / rc_lookahead=40 / rc=2pass / mbtree=1 / bitrate=1299 / ratetol=1.0 / qcomp=0.60 / qpmin=0 / qpmax=69 / qpstep=4 / cplxblur=20.0 / qblur=0.5 / ip_ratio=1.40 / aq=1:1.00
Encoded date                : UTC 2016-10-29 13:54:19
Tagged date                 : UTC 2016-10-29 13:54:32

Audio
ID                          : 2
Format                      : AAC
Format/Info                 : Advanced Audio Codec
Format profile              : LC
Codec ID                    : 40
Duration                    : 2 h 6 min
Bit rate mode               : Variable
Bit rate                    : 132 kb/s
Maximum bit rate            : 179 kb/s
Channel(s)                  : 2 channels
Channel positions           : Front: L R
Sampling rate               : 44.1 kHz
Frame rate                  : 43.066 FPS (1024 spf)
Compression mode            : Lossy
Stream size                 : 121 MiB (9%)
Encoded date                : UTC 2016-10-29 12:22:00
Tagged date                 : UTC 2016-10-29 13:54:32



 7 arabp2p.com

 8 arabp2p.com

 9 arabp2p.com

 10 arabp2p.com

 11 arabp2p.com

 12 arabp2p.com



 13 arabp2p.com


الملفات ذات العلاقة بـ ( Tunnel.2016.Korean.720p-Subbed Arabic )
Train to Busan 2016 Korean 720p -Subbed Arabic 2 0 848.52 MB
The Wailing (2016) LIMITED 720p BluRay x264-Subbed Arabic 2 0 748.03 MB
My Sassy Girl (English Subs) (Korean Movie - Yeopgijeogin geunye + الترجمة 144 12 662.09 MB
House of the Disappeared 2016 HDRip 720p H264 AAC ArabicSub-Lp2p 7 0 1.20 GB
Saawariya 2007 arabic 3 1 2.19 GB
nemr23الف شكر يا نجم دائما متألق
Hokagehttp://www.arabp2p.com/gifs/thanks1b.gif

الرئيسية - قائمة ملفات التورنت - فيسبوك