انقر هنا لمشاهدة النسخة الكاملة للصفحة

تورنت - Ae Dil Hai Mushkil (2016) 720p Blu-Ray x264 AAC 5.1 ESub -DDR

افلام هنديه الحجم : 3.44 GB التراكر: داخلي المتصلين : 0,0  اكتمل ( 60 ) 29/12/2016 تحميل التورنت

السلام عليكم ورحمة الله وبركاته

Ae Dil Hai Mushkil  (2016) إنه لقلب مُشتبك

 1 arabp2p.com


 2 arabp2p.com


ﻓﻴﻠﻢ الهند 155 دقيقة ﺗﻢ ﻋﺮﺿﻪ
    نوع العمل: ﻓﻴﻠﻢ

   تصنيف العمل: ﺩﺭاﻣﺎ ﺭﻭﻣﺎﻧﺴﻲ

  تاريخ العرض: الإمارات العربية المتحدة [27 اكتوبر 2016]

   اللغة: الهندية

   بلد الإنتاج: الهند

   هل العمل ملون؟: Yes

   مواقع التصوير فرنسا النّمسا المملكة المتّحدة

 3 arabp2p.com
يروي الفيلم حكاية عن الحب من طرف واحد، والرحلة العاطفية
لثلاث شخصيات: آيان (رانبير كابور) واليزيه (أنوشكا شارما)
وسابا (آيشورايا راي باتشان).


طاقم العمل

 4 arabp2p.com


 5 arabp2p.com



:


Source: BD50 @ DDR

Format : Matroska
File size : 3.43 GiB
Duration : 2 h 36 min
Overall bit rate : 3 133 kb/s

Video
Format : AVC
Format/Info : Advanced Video Codec
Format profile : High@L4.1
Format settings, CABAC : Yes
Format settings, ReFrames : 3 frames
Codec ID : V_MPEG4/ISO/AVC
Duration : 2 h 36 min
Bit rate : 2 969 kb/s
Width : 1 280 pixels
Height : 534 pixels
Display aspect ratio : 2.40:1
Frame rate mode : Constant
Frame rate : 24.000 FPS
Color space : YUV
Chroma subsampling : 4:2:0
Bit depth : 8 bits
Scan type : Progressive
Bits/(Pixel*Frame) : 0.181
Stream size : 3.26 GiB (95%)
Default : Yes
Forced : No
Color range : Limited
Color primaries : BT.709
Transfer characteristics : BT.709
Matrix coefficients : BT.709

Audio
Format : AAC
Format/Info : Advanced Audio Codec
Format profile : LC
Codec ID : A_AAC
Duration : 2 h 36 min
Bit rate : 160 kb/s
Channel(s) : 6 channels
Channel positions : Front: L C R, Side: L R, LFE
Sampling rate : 48.0 kHz
Frame rate : 46.875 FPS (1024 spf)
Compression mode : Lossy
Delay relative to video : 9 ms
Stream size : 179 MiB (5%)
Language : Hindi
Default : Yes
Forced : No





 6 arabp2p.com

 7 arabp2p.com

 8 arabp2p.com

 9 arabp2p.com

 10 arabp2p.com

 11 arabp2p.com

 12 arabp2p.com

الملفات ذات العلاقة بـ ( Ae Dil Hai Mushkil (2016) 720p Blu-Ray x264 AAC 5.1 ESub -DDR )
Dilwale 2015 BluRay - 1080p - mHD - x264 - ESub DDR 1 0 4.29 GB
Bol Bachchan (2012) - Blu-Ray - x264 - 720p مترجم 1 0 3.90 GB
Dangal (2016) BluRay 720p x264 AAC 5.1.ArabicSub-Lp2p 5 0 1.34 GB
Dear Zindagi 2016 1080p BluRay x264 AAC 5.1 1 0 2.83 GB
Bangistan (2015) 1080p Untouched WEBHD AVC AAC MSub [DDR] 8 4 5.67 GB
egyptfoxشكرا على الفيلم ... جاري تحميل هذه النسخة بدلا من النسخة الاخرى لعدم وجود سيد لها

الرئيسية - قائمة ملفات التورنت - فيسبوك