انقر هنا لمشاهدة النسخة الكاملة للصفحة

تورنت - The Wailing (2016) LIMITED 720p BluRay x264-Subbed Arabic

افلام آسيوية الحجم : 748.03 MB التراكر: داخلي المتصلين : 0,1  اكتمل ( 46 ) 20/11/2016 تحميل التورنت

 1 arabp2p.com

The Wailing (2016) LIMITED 720p BluRay x264-Subbed Arabic

مع الترجمة العربية

 2 arabp2p.com

 3 arabp2p.com

ﻓﻴﻠﻢ كوريا الشمالية 156 دقيقة ﺗﻢ ﻋﺮﺿﻪ
تاريخ العرض: 3 يونيو 2016
تصنيف العمل: ﺗﺸﻮﻳﻖ ﻭ ﺇﺛﺎﺭﺓ
ﺇﺧﺮاﺝ: نا هونج جن (مخرج)
ﺗﺄﻟﻴﻒ: نا هونج جن (قصة وسيناريو وحوار)
طاقم العمل: هان-تشول جو  دو وون كواك  سو-يون جانج  وو-هي تشون  دجون كيناميرا  هوانج يونج مين


 4 arabp2p.com



 5 arabp2p.com

تدور قصة الفيلم عن غريب يصل إلى قرية صغيرة، وبمجرد وصوله يبدأ مرض غامض في التفشي والانتشار، هنا ينخرط ظابط شرطة في هذا اللغز محاولًا حله بكل ما أوتي من قوة لإنقاذ ابنته.

 6 arabp2p.com

:
Format                      : Matroska
Format version              : Version 4 / Version 2
File size                   : 748 MiB
Duration                    : 2 h 36 min
Overall bit rate            : 669 kb/s
Movie name                  : TFPDL.COM - The Wailing 2016 LIMITED 720p BluRay x264
Encoded date                : UTC 2016-11-20 01:34:21
Writing application         : mkvmerge v8.1.0 ('Psychedelic Postcard') 32bit
Writing library             : libebml v1.3.1 + libmatroska v1.4.2 / Lavf56.30.100
Comment                     : TFPDL.COM

Video
ID                          : 1
Format                      : AVC
Format/Info                 : Advanced Video Codec
Format profile              : High@L3.1
Format settings, CABAC      : Yes
Format settings, ReFrames   : 4 frames
Codec ID                    : V_MPEG4/ISO/AVC
Duration                    : 2 h 36 min
Bit rate                    : 575 kb/s
Width                       : 1 280 pixels
Height                      : 536 pixels
Display aspect ratio        : 2.40:1
Frame rate mode             : Constant
Frame rate                  : 24.000 FPS
Color space                 : YUV
Chroma subsampling          : 4:2:0
Bit depth                   : 8 bits
Scan type                   : Progressive
Bits/(Pixel*Frame)          : 0.035
Stream size                 : 643 MiB (86%)
Writing library             : x264 core 146 r2 121396c
Encoding settings           : cabac=1 / ref=3 / deblock=1:0:0 / *censored*yse=0x3:0x113 / me=hex / subme=7 / psy=1 / psy_rd=1.00:0.00 / mixed_ref=1 / me_range=16 / chroma_me=1 / trellis=1 / 8x8dct=1 / cqm=0 / deadzone=21,11 / fast_pskip=1 / chroma_qp_offset=-2 / threads=12 / lookahead_threads=2 / sliced_threads=0 / nr=0 / decimate=1 / interlaced=0 / bluray_compat=0 / constrained_intra=0 / bframes=3 / b_pyramid=2 / b_adapt=1 / b_bias=0 / direct=1 / weightb=1 / open_gop=0 / weightp=2 / keyint=250 / keyint_min=24 / scenecut=40 / intra_refresh=0 / rc_lookahead=40 / rc=crf / mbtree=1 / crf=27.0 / qcomp=0.60 / qpmin=0 / qpmax=69 / qpstep=4 / ip_ratio=1.40 / aq=1:1.00
Default                     : Yes
Forced                      : No

Audio
ID                          : 2
Format                      : AAC
Format/Info                 : Advanced Audio Codec
Format profile              : LC
Codec ID                    : A_AAC
Duration                    : 2 h 36 min
Bit rate                    : 92.0 kb/s
Channel(s)                  : 2 channels
Channel positions           : Front: L R
Sampling rate               : 48.0 kHz
Frame rate                  : 46.875 FPS (1024 spf)
Compression mode            : Lossy
Delay relative to video     : -43 ms
Stream size                 : 103 MiB (14%)
Writing library             : Lavc56.34.100 libfdk_aac
Language                    : Korean
Default                     : Yes
Forced                      : No

Text #1
ID                          : 3
Format                      : ASS
Codec ID                    : S_TEXT/ASS
Codec ID/Info               : Advanced Sub Station Alpha
Duration                    : 2 h 36 min
Bit rate                    : 59 b/s
Count of elements           : 1193
Compression mode            : Lossless
Stream size                 : 68.0 KiB (0%)
Language                    : Arabic
Default                     : Yes
Forced                      : No

Text #2
ID                          : 4
Format                      : UTF-8
Codec ID                    : S_TEXT/UTF8
Codec ID/Info               : UTF-8 Plain Text
Duration                    : 2 h 36 min
Bit rate                    : 40 b/s
Count of elements           : 1191
Stream size                 : 46.3 KiB (0%)
Language                    : Arabic
Default                     : No
Forced                      : No

Menu
00:00:00.000                : :00:00:00.000
00:09:28.125                : :00:09:28.125
00:18:42.167                : :00:18:42.167
00:26:49.458                : :00:26:49.458
00:33:19.250                : :00:33:19.250
00:42:51.125                : :00:42:51.125
00:48:58.500                : :00:48:58.500
00:57:56.458                : :00:57:56.458
01:03:32.958                : :01:03:32.958
01:12:30.917                : :01:12:30.917
01:22:24.125                : :01:22:24.125
01:29:01.958                : :01:29:01.958
01:38:09.542                : :01:38:09.542
01:42:59.875                : :01:42:59.875
01:52:19.667                : :01:52:19.667
01:58:12.333                : :01:58:12.333
02:06:58.125                : :02:06:58.125
02:13:58.917                : :02:13:58.917
02:21:53.542                : :02:21:53.542
02:30:45.083                : :02:30:45.083



تنويه:الترجمة مدمجة مع الفيلم بصيغتين SRT و ASS

 7 arabp2p.com

 8 arabp2p.com

 9 arabp2p.com

 10 arabp2p.com

 11 arabp2p.com

 12 arabp2p.com





 13 arabp2p.com


الملفات ذات العلاقة بـ ( The Wailing (2016) LIMITED 720p BluRay x264-Subbed Arabic )
The Protector 2005 UE 720p BluRay x264 12 4 5.43 GB
Nightfall.2012.BluRay.720p.DTS.x264-CHD 178 537 4.36 GB
The Warriors Way 2010 720p BluRay X264-AMIABLE + الترجمة 126 27 4.37 GB
Love.In.The.Buff.2012.720p.BluRay.x264-CHD 51 66 5.00 GB
Legend.Of.A.Rabbit.2011.720p.BluRay.x264-HDChina 47 71 3.83 GB
solo13ياريت تهتهمون اكثر في الافلام الاسياويه الجميله و يعطيكم العافيه و الصحه
Hokagehttp://www.arabp2p.com/gifs/17.gif

الرئيسية - قائمة ملفات التورنت - فيسبوك