انقر هنا لمشاهدة النسخة الكاملة للصفحة

تورنت - 1920London (2016) - DvdRip - X264 -Subbed Arabic

افلام هنديه الحجم : 696.50 MB التراكر: داخلي المتصلين : 0,0  اكتمل ( 72 ) 10/08/2016 تحميل التورنت

 1 arabp2p.com

1920London (2016) - DvdRip - X264 -Subbed Arabic

(الترجمة VOBSUB مدمجة مع الفيلم)

 2 arabp2p.com

 3 arabp2p.com

ﻓﻴﻠﻢ الهند 117 دقيقة ﺗﻢ ﻋﺮﺿﻪ
تاريخ العرض: 5 مايو 2016
تصنيف العمل: ﺭﻋﺐ
ﺇﺧﺮاﺝ: تينو سوريش ديساي
ﺗﺄﻟﻴﻒ: سوخماني سادنا
طاقم العمل: فيشال كومار  ميرا شوبرا


 4 arabp2p.com

شيفانجي امرأة مقيمة مع زوجها فير سينجا في العاصمة البريطانية لندن، يتلقى هدية في يوم من اﻷيام من راجاساثان، وما أن يتلقى تلك الهدية حتى تقع أحداث غريبة يُعتقد بأنها من أثر السحر اﻷسود، وتقرر شيفانجي اللجوء لعون جاي طارد اﻷوراح الشريرة.

 5 arabp2p.com

:
Complete name               : 1920 London (2016) - DvdRip - X264 -Subbed Arabic.mkv
Format                      : Matroska
Format version              : Version 4 / Version 2
File size                   : 696 MiB
Duration                    : 1h 58mn
Overall bit rate            : 821 Kbps
Encoded date                : UTC 2016-08-10 16:33:00
Writing application         : mkvmerge v8.1.0 ('Psychedelic Postcard') 32bit
Writing library             : libebml v1.3.1 + libmatroska v1.4.2

Video
ID                          : 1
Format                      : AVC
Format/Info                 : Advanced Video Codec
Format profile              : High@L2.1
Format settings, CABAC      : Yes
Format settings, ReFrames   : 4 frames
Codec ID                    : V_MPEG4/ISO/AVC
Duration                    : 1h 58mn
Bit rate                    : 693 Kbps
Width                       : 624 pixels
Height                      : 272 pixels
Display aspect ratio        : 2.25:1
Frame rate mode             : Constant
Frame rate                  : 23.976 (24000/1001) fps
Color space                 : YUV
Chroma subsampling          : 4:2:0
Bit depth                   : 8 bits
Scan type                   : Progressive
Bits/(Pixel*Frame)          : 0.170
Stream size                 : 588 MiB (84%)
Writing library             : x264 core 148 r2638 7599210
Encoding settings           : cabac=1 / ref=3 / deblock=1:0:0 / *censored*yse=0x3:0x113 / me=hex / subme=7 / psy=1 / psy_rd=1.00:0.00 / mixed_ref=1 / me_range=16 / chroma_me=1 / trellis=1 / 8x8dct=1 / cqm=0 / deadzone=21,11 / fast_pskip=1 / chroma_qp_offset=-2 / threads=1 / lookahead_threads=1 / sliced_threads=0 / nr=0 / decimate=1 / interlaced=0 / bluray_compat=0 / constrained_intra=0 / bframes=3 / b_pyramid=2 / b_adapt=1 / b_bias=0 / direct=1 / weightb=1 / open_gop=0 / weightp=2 / keyint=240 / keyint_min=23 / scenecut=40 / intra_refresh=0 / rc_lookahead=40 / rc=2pass / mbtree=1 / bitrate=693 / ratetol=1.0 / qcomp=0.60 / qpmin=0 / qpmax=69 / qpstep=4 / cplxblur=20.0 / qblur=0.5 / ip_ratio=1.40 / aq=1:1.00
Default                     : Yes
Forced                      : No

Audio
ID                          : 2
Format                      : AAC
Format/Info                 : Advanced Audio Codec
Format profile              : HE-AAC / LC
Codec ID                    : A_AAC
Duration                    : 1h 58mn
Bit rate                    : 125 Kbps
Channel(s)                  : 6 channels
Channel positions           : Front: L C R, Side: L R, LFE
Sampling rate               : 48.0 KHz / 24.0 KHz
Frame rate                  : 23.438 fps (1024 spf)
Compression mode            : Lossy
Delay relative to video     : 31ms
Stream size                 : 106 MiB (15%)
Default                     : Yes
Forced                      : No

Text
ID                          : 3
Format                      : VobSub
Muxing mode                 : zlib
Codec ID                    : S_VOBSUB
Codec ID/Info               : Picture based subtitle format used on DVDs
Duration                    : 1h 56mn
Bit rate                    : 913 bps
Count of elements           : 924
Stream size                 : 780 KiB (0%)
Language                    : Arabic
Default                     : No
Forced                      : No



 6 arabp2p.com



 7 arabp2p.com

 8 arabp2p.com
 9 arabp2p.com
 10 arabp2p.com
 11 arabp2p.com
 12 arabp2p.com



 13 arabp2p.com


الملفات ذات العلاقة بـ ( 1920London (2016) - DvdRip - X264 -Subbed Arabic )
Udta Punjab (2016) - DvdRip - X264 -Subbed Arabic 1 0 698.80 MB
Phobia (2016) 720p DvDRip x264 AAC -Subbed Arabic 1 0 546.73 MB
Pink.2016.Hindi.720p.BluRay.x264-Subbed Arabic 1 0 1.12 GB
Sardaar Gabbar Singh 2016.720p.X265-Subbed Arabic 1 1 800.77 MB
TE3N 2016 مترجم 720p DvDRip اثارة وغموض اميتاب بتشان وفيديا بالن 1 0 1.78 GB
zin123تسلم يا بطل , الفلم لازم احضره , شكله حماسي , يسلم يا رائع .
الميلاد تسلم و تسلم ايديك يا أبو آية ربي يحفظك .. يشبه في قصته لفلم الرعب التركي \"سـموم\"
nemr23 الف شكر يا نجم التراكر على الفيلم المرعب ارجو شرح طريقة عرض الترجمة لانها غير ملصوقة ولا اجد ملف ترجمة http://www.m5zn.com/newuploads/2016/08/10/png//637ae1e98bb938b.png الف شكر اخى الغالى على الاستجابة السريعة والشرح الوافى حقيقى طريقة ممتازة لعرض الترجمة دون ضغط الفيلم
KhAiRi الف شكر يا نجم التراكر على الفيلم المرعب ارجو شرح طريقة عرض الترجمة لانها غير ملصوقة ولا اجد ملف ترجمة http://www.m5zn.com/newuploads/2016/08/10/png//637ae1e98bb938b.png
nemr23الف شكر يا نجم التراكر على الفيلم المرعب ارجو شرح طريقة عرض الترجمة لانها غير ملصوقة ولا اجد ملف ترجمة

الرئيسية - قائمة ملفات التورنت - فيسبوك