انقر هنا لمشاهدة النسخة الكاملة للصفحة

[تورنت] - [زنزانة][2015][Web-DL][اماراتي]

افلام عربيه الحجم : 4.85 GB التراكر: داخلي المتصلين : 1,16  اكتمل ( 26 ) 13/01/2020 تحميل التورنت


زنزانة
اخراج: ماجد الأنصاري
تمثيل: صالح بكري,علي سليمان,ياسة,عبدالله بو عابد,علي الجابري,منصور الفيلي


 1 arabp2p.com
 الفيلم الاماراتي زنزانة ( 2015)
نسخة غير معدلة قمت بسحبها من موقع netflix
اخراج: ماجد الأنصاري
تمثيل:  صالح بكري , علي سليمان , ياسة , عبدالله بو عابد , علي الجابري , منصور الفيلي
في أحد أقسام الشرطة النائية، يقبع طلال خلف زنزانة معذبًا بالذكريات التي تنتابه حول مطلقته وابنه وهو في انتظار مصيره داخل الحبس، وفي تلك الأثناء يزور قسم الشرطة ضابط شرطة سيكوباتي قادم من بلدة مجاورة يدعى دابان، والذي يحول زيارته لقسم الشرطة إلى حمام دم، ويضطر طلال ﻹدعاء الجنون من أجل حماية عائلته مما قد يفعله هذا الضابط.

 2 arabp2p.com

 3 arabp2p.com
((معلومات الاصدار))

Code
Format                      : MPEG-4
Format profile              : Base Media
Codec ID                    : isom (isom/iso2/avc1/mp41)
File size                   : 4.85 GiB
Duration                    : 1 h 35 min
Overall bit rate            : 7 230 kb/s
Writing application         : FlixGrab Plus

Video
ID                          : 1
Format                      : AVC
Format/Info                 : Advanced Video Codec
Format profile              : High@L4
Format settings             : CABAC / 3 Ref Frames
Format settings, CABAC      : Yes
Format settings, ReFrames   : 3 frames
Codec ID                    : avc1
Codec ID/Info               : Advanced Video Coding
Duration                    : 1 h 35 min
Bit rate                    : 6 583 kb/s
Width                       : 1 920 pixels
Height                      : 1 080 pixels
Display aspect ratio        : 16:9
Frame rate mode             : Constant
Frame rate                  : 23.976 FPS
Color space                 : YUV
Chroma subsampling          : 4:2:0
Bit depth                   : 8 bits
Scan type                   : Progressive
Bits/(Pixel*Frame)          : 0.132
Stream size                 : 4.41 GiB (91%)
Codec configuration box     : avcC

Audio
ID                          : 2
Format                      : E-AC-3
Format/Info                 : Enhanced AC-3
Commercial name             : Dolby Digital Plus
Codec ID                    : ec-3
Duration                    : 1 h 35 min
Bit rate mode               : Constant
Bit rate                    : 640 kb/s
Channel(s)                  : 6 channels
Channel layout              : L R C LFE Ls Rs
Sampling rate               : 48.0 kHz
Frame rate                  : 31.250 FPS (1536 SPF)
Bit depth                   : 16 bits
Compression mode            : Lossy
Stream size                 : 439 MiB (9%)
Language                    : Arabic
Service kind                : Complete Main
Default                     : Yes
Alternate group             : 1



 4 arabp2p.com
((البوستر))
 5 arabp2p.com

 6 arabp2p.com
((الممثلون))
 7 arabp2p.com

 8 arabp2p.com
((لقطات من المحتوى))
 9 arabp2p.com
 10 arabp2p.com
 11 arabp2p.com
 12 arabp2p.com
 13 arabp2p.com
 14 arabp2p.com

 15 arabp2p.com
((مشاهدة ممتعه))

الملفات ذات العلاقة بـ ( زنزانة )
[زنزانة][2015][HDTV][اماراتي] 1 0 3.52 GB
[ريجاتا][2015][Web-DL] 20 1 6.32 GB
[قبل زحمة الصيف][2015][Web-DL] 15 0 2.62 GB
[كرم الكينج][2015][Web-DL] 15 1 4.37 GB
[العم ناجي في اﻹمارات][2019][Web-DL][اماراتي] 13 1 3.18 GB
alkhooryيعطيك العافية
underworldمشاركة جميلة يعطيك العافية

الرئيسية - قائمة ملفات التورنت - فيسبوك