انقر هنا لمشاهدة النسخة الكاملة للصفحة

تورنت - Banjo (2016) - WebRip - X264 - Subbed Arabic

افلام هنديه الحجم : 698.36 MB التراكر: داخلي المتصلين : 0,3  اكتمل ( 26 ) 10/12/2016 تحميل التورنت

 1 arabp2p.com

Banjo (2016) - WebRip - X264 - Subbed Arabic

مع الترجمة العربية

 2 arabp2p.com

 3 arabp2p.com

ﻓﻴﻠﻢ الهند 137 دقيقة ﺗﻢ ﻋﺮﺿﻪ
تاريخ العرض: 22 سبتمبر 2016
تصنيف العمل: ﺣﺮﻛﺔ
ﺇﺧﺮاﺝ: رافي جادهاف (مخرج)
ﺗﺄﻟﻴﻒ: كابيل سوانت (سيناريو)  نيخيل ميهروترا (سيناريو)  (المزيد)
طاقم العمل: نرجس فخري  دهارميش يلاند  رايتيش ديشموخ


 4 arabp2p.com



 5 arabp2p.com

يروي الفيلم قصة موسيقي متخصص في العزف على آلة البانجو يسعى لنيل النجاح والشهرة والتقدير.

 6 arabp2p.com


Code
Format                      : Matroska
Format version              : Version 4 / Version 2
File size                   : 698 MiB
Duration                    : 2 h 15 min
Overall bit rate            : 719 kb/s
Encoded date                : UTC 2016-12-09 20:34:36
Writing application         : mkvmerge v8.1.0 ('Psychedelic Postcard') 32bit
Writing library             : libebml v1.3.1 + libmatroska v1.4.2

Video
ID                          : 1
Format                      : AVC
Format/Info                 : Advanced Video Codec
Format profile              : High@L2.1
Format settings, CABAC      : Yes
Format settings, ReFrames   : 4 frames
Codec ID                    : V_MPEG4/ISO/AVC
Duration                    : 2 h 15 min
Bit rate                    : 669 kb/s
Width                       : 624 pixels
Height                      : 272 pixels
Display aspect ratio        : 2.25:1
Frame rate mode             : Constant
Frame rate                  : 24.000 FPS
Color space                 : YUV
Chroma subsampling          : 4:2:0
Bit depth                   : 8 bits
Scan type                   : Progressive
Bits/(Pixel*Frame)          : 0.164
Stream size                 : 649 MiB (93%)
Writing library             : x264 core 148 r2638 7599210
Encoding settings           : cabac=1 / ref=3 / deblock=1:0:0 / *censored*yse=0x3:0x113 / me=hex / subme=7 / psy=1 / psy_rd=1.00:0.00 / mixed_ref=1 / me_range=16 / chroma_me=1 / trellis=1 / 8x8dct=1 / cqm=0 / deadzone=21,11 / fast_pskip=1 / chroma_qp_offset=-2 / threads=1 / lookahead_threads=1 / sliced_threads=0 / nr=0 / decimate=1 / interlaced=0 / bluray_compat=0 / constrained_intra=0 / bframes=3 / b_pyramid=2 / b_adapt=1 / b_bias=0 / direct=1 / weightb=1 / open_gop=0 / weightp=2 / keyint=240 / keyint_min=24 / scenecut=40 / intra_refresh=0 / rc_lookahead=40 / rc=2pass / mbtree=1 / bitrate=669 / ratetol=1.0 / qcomp=0.60 / qpmin=0 / qpmax=69 / qpstep=4 / cplxblur=20.0 / qblur=0.5 / ip_ratio=1.40 / aq=1:1.00
Default                     : Yes
Forced                      : No

Audio
ID                          : 2
Format                      : AAC
Format/Info                 : Advanced Audio Codec
Format profile              : HE-AAC / LC
Codec ID                    : A_AAC
Duration                    : 2 h 15 min
Bit rate                    : 48.0 kb/s
Channel(s)                  : 2 channels
Channel positions           : Front: L R
Sampling rate               : 48.0 kHz / 24.0 kHz
Frame rate                  : 23.438 FPS (1024 spf)
Compression mode            : Lossy
Delay relative to video     : 31 ms
Stream size                 : 46.6 MiB (7%)
Default                     : Yes
Forced                      : No

Text
ID                          : 3
Format                      : UTF-8
Codec ID                    : S_TEXT/UTF8
Codec ID/Info               : UTF-8 Plain Text
Duration                    : 2 h 13 min
Bit rate                    : 84 b/s
Count of elements           : 1888
Stream size                 : 82.0 KiB (0%)
Language                    : Arabic
Default                     : No
Forced                      : No



 7 arabp2p.com

 8 arabp2p.com

 9 arabp2p.com

 10 arabp2p.com

 11 arabp2p.com

 12 arabp2p.com



 13 arabp2p.com


الملفات ذات العلاقة بـ ( Banjo (2016) - WebRip - X264 - Subbed Arabic )
1920London (2016) - DvdRip - X264 -Subbed Arabic 2 0 696.50 MB
Befikre (2016) 720p BluRay x264 - Subbed Arabic 6 0 1.64 GB
Pink.2016.Hindi.720p.BluRay.x264-Subbed Arabic 6 0 1.12 GB
Nil Battey Sannata (2016) - DvdRip - X264 -Subbed Arabic 3 0 695.57 MB
Phobia (2016) 720p DvDRip x264 AAC -Subbed Arabic 2 0 546.73 MB
Made_iN_AlGeRiAشكرا أخي
nemr23الف شكر اخى الغالى على الفيلم والترجمة تسلم ايدك
nemr23الف شكر اخى الغالى على الفيلم والترجمة تسلم ايدك

الرئيسية - قائمة ملفات التورنت - فيسبوك