انقر هنا لمشاهدة النسخة الكاملة للصفحة

تورنت - [ndj].[arabp2p].[480p].[Kung. Fu. Jungle] مترجم

افلام آسيوية الحجم : 549.64 MB التراكر: داخلي المتصلين : 0,0  اكتمل ( 39 ) 16/05/2016 تحميل التورنت



 1 arabp2p.com


أقدم لكم :
Kung Fu Jungle 2014


 2 arabp2p.com


 3 arabp2p.com

قصة الفلم:
مدرب فنون الدفاع عن النفس (داني ين) من قوات الشرطة ،
يدخل السجن بعد أن قتل رجلا خطأ ،
ليبدأ قاتل محترف استهداف معلمي فنون الدفاع عن النفس،
المدرب يعرض المساعدة على  الشرطة  مقابل حريته….

الطاقم :
 4 arabp2p.com
يسمى كذالك: Kung Fu Killer
الترجمة : HardSub
الابعااد: 480p
تاريخ الاصدار 2014
نوع الفيلم اكشن, اثارة




 5 arabp2p.com

 6 arabp2p.com


 7 arabp2p.com
:



General

Format: MPEG-4
File size : 550 MiB
Duration : 1h 40mn
Overall bit rate : 768 Kbps



Video

Format  : AVC
Duration : 1h 40mn
Bit rate : 668 Kbps
Width: 848 pixels
Height: 480 pixels
Display aspect ratio: 16:9
Frame rate mode : Constant
Frame rate : 24.000 fps
Color space : YUV
Chroma subsampling: 4:2:0
Bit depth  : 8 bits
Scan type: Progressive
Bits/(Pixel*Frame): 0.068
Stream size: 478 MiB (87%)
Writing library : x264 core



Audio

Format: AAC
Format/Info: Advanced Audio Codec
Format profile: LC
Duration: 1h 40mn
Bit rate mode: Variable
Bit rate: 96.0 Kbps
Maximum bit rate: 102 Kbps
Channel(s): 2 channels
Sampling rate: 44.1 KHz
Frame rate: 43.066 fps (1024 spf)
Stream size: 68.7 MiB (12%)





تحيتي للجميع




الملفات ذات العلاقة بـ ( [ndj].[arabp2p].[480p].[Kung. Fu. Jungle] مترجم )
Mojin.the.Lost.Legend.2015.480p.p2p.ndj 1 0 732.21 MB
Kung Fu Hustle (2004)720p BRrip H264+الترجمة 21 2 2.00 GB
Kung Fu Master DVDRip Xvid AC3-THC +الترجمة 1 0 1.66 GB
Kung.Fu.Wing.Chun.2010.DVDRip.x264-DiNKY+الترجمة 19 3 1.38 GB
Choy.Lee.Fut.Kung.Fu.2011.DVDRip.XviD.AC3.5.1 1 0 1.37 GB
mahmoud77777دائما مميز باعمالك
الميلاد الف شكر اخى الغالى على الأضافة الرائعة تسلم أيدك هلا بمستر nemr23 ... ممنون جدا لمرورك العطر و تشريفك الصفحة تحيتي
nemr23الف شكر اخى الغالى على الأضافة الرائعة تسلم أيدك

الرئيسية - قائمة ملفات التورنت - فيسبوك