انقر هنا لمشاهدة النسخة الكاملة للصفحة

[تورنت] - [ريجاتا][2015][Web-DL]

افلام عربيه الحجم : 6.32 GB التراكر: داخلي المتصلين : 2,19  اكتمل ( 39 ) 13/01/2020 تحميل التورنت


ريجاتا
اخراج: محمد سامي
تمثيل: عمرو سعد,إلهام شاهين,محمود حميدة,رانيا يوسف,فتحي عبدالوهاب,أحمد مالك


 1 arabp2p.com
 الفيلم المصري ريجاتا ( 2015 )
نسخة غير معدلة قمت بسحبها من موقع netflix
اخراج: محمد سامي
تمثيل: عمرو سعد , إلهام شاهين , محمود حميدة , رانيا يوسف , فتحي عبدالوهاب , أحمد مالك
يعمل ريجاتا (عمرو سعد) في عدة أنشطة غير مشروعة مع رجل أعمال يدعى ساري (محمود حميدة) ، وفي إحدى المرات يحصل (ريجاتا) في إحدى العمليات على ربع مليون جنيه ، مما سيؤهله للسفر مع أمه إلى (إيطاليا) بجواز سفر مزور ، لكن فرحة (ريجاتا) تزول مع اكتشافه خيانة نصرة (رانيا يوسف) زوجة أخيه (عوض) بالصدفة ، وهو ما يقلب كل شيء رأسًا على عقب ، خاصة بعد موت (عوض) بالخطأ بعد وقوعه من شرفة المنزل .

 2 arabp2p.com

 3 arabp2p.com
((معلومات الاصدار))

Code
Format                      : MPEG-4
Format profile              : Base Media
Codec ID                    : isom (isom/iso2/avc1/mp41)
File size                   : 6.31 GiB
Duration                    : 1 h 39 min
Overall bit rate            : 9 064 kb/s
Writing application         : FlixGrab Plus

Video
ID                          : 1
Format                      : AVC
Format/Info                 : Advanced Video Codec
Format profile              : High@L4
Format settings             : CABAC / 3 Ref Frames
Format settings, CABAC      : Yes
Format settings, ReFrames   : 3 frames
Codec ID                    : avc1
Codec ID/Info               : Advanced Video Coding
Duration                    : 1 h 39 min
Bit rate                    : 8 930 kb/s
Width                       : 1 920 pixels
Height                      : 1 080 pixels
Display aspect ratio        : 16:9
Frame rate mode             : Constant
Frame rate                  : 25.000 FPS
Color space                 : YUV
Chroma subsampling          : 4:2:0
Bit depth                   : 8 bits
Scan type                   : Progressive
Bits/(Pixel*Frame)          : 0.172
Stream size                 : 6.22 GiB (99%)
Codec configuration box     : avcC

Audio
ID                          : 2
Format                      : E-AC-3
Format/Info                 : Enhanced AC-3
Commercial name             : Dolby Digital Plus
Codec ID                    : ec-3
Duration                    : 1 h 39 min
Bit rate mode               : Constant
Bit rate                    : 128 kb/s
Channel(s)                  : 2 channels
Channel layout              : L R
Sampling rate               : 48.0 kHz
Frame rate                  : 31.250 FPS (1536 SPF)
Bit depth                   : 16 bits
Compression mode            : Lossy
Stream size                 : 91.3 MiB (1%)
Language                    : Arabic
Service kind                : Complete Main
Default                     : Yes
Alternate group             : 1



 4 arabp2p.com
((البوستر))
 5 arabp2p.com

 6 arabp2p.com
((الممثلون))
 7 arabp2p.com

 8 arabp2p.com
((لقطات من المحتوى))
 9 arabp2p.com
 10 arabp2p.com
 11 arabp2p.com
 12 arabp2p.com
 13 arabp2p.com
 14 arabp2p.com
 15 arabp2p.com
 16 arabp2p.com

 17 arabp2p.com
((مشاهدة ممتعه))

الملفات ذات العلاقة بـ ( ريجاتا )
[ريجاتا][2015][Web-DL] 3 0 2.18 GB
[عمر وسلمى 3][2012][Web-DL] 18 1 5.48 GB
[كرم الكينج][2015][Web-DL] 14 2 4.37 GB
[قبل زحمة الصيف][2015][Web-DL] 13 0 2.62 GB
[ولاد رزق][2015][HDTV] 11 1 2.98 GB
attaattaبننتظر ابداعك مشكوووور
attaattaبننتظر ابداعك مشكوووور
underworldمشاركة جميلة يعطيك العافية

الرئيسية - قائمة ملفات التورنت - فيسبوك