انقر هنا لمشاهدة النسخة الكاملة للصفحة

تورنت - Wathering with You -Tenki no Ko- 2019 UHD BluRay 2160p DTS-HD MA 5.1 HEVC REMUX-FraMeSToR [ArabicSub]

افلام الحجم : 46.90 GB التراكر: داخلي المتصلين : 0,4  اكتمل ( 7 ) 14/10/2020 تحميل التورنت

 1 arabp2p.com

السلام عليكم ورحمة الله وبركاته

فيلم Tenki no Ko بجودة الـ4كي بلوراي remux. دمجت الترجمة العربية مع الفيلم بالاضافة الى وجود الترجمة الانجليزية واليابانية والفرنسية والاسبانية ايضاً. الفيلم يحتوي على دبلجة مدمجة للانجليزية, بالاضافة الى وجود اليابانية طبعها.

تفاصيل الانمي على AniDB
الخطوط المستعملة تجدها مرفقة بتفاصيل الترجمة في ٍSubscene

بعض اللقطات:
 2 arabp2p.com
 3 arabp2p.com
 4 arabp2p.com

Media Info

Code
General
Unique ID                                : 249012354183893889158814501190478023471 (0xBB5608F21FA0D4BE1F1664F0CDEB4B2F)
Complete name                            : Weathering.with.You.2019.PROPER.UHD.BluRay.2160p.DTS-HD.MA.5.1.HEVC.REMUX-FraMeSToR.mkv
Format                                   : Matroska
Format version                           : Version 4 / Version 2
File size                                : 46.9 GiB
Duration                                 : 1 h 52 min
Overall bit rate                         : 59.8 Mb/s
Movie name                               : Weathering with You (2019)
Encoded date                             : UTC 2020-10-14 12:11:45
Writing application                      : mkvmerge v19.0.0 ('Brave Captain') 64-bit
Writing library                          : libebml v1.3.5 + libmatroska v1.4.8
IMDB                                     : tt9426210
TMDB                                     : movie/568160

Video
ID                                       : 1
Format                                   : HEVC
Format/Info                              : High Efficiency Video Coding
Format profile                           : Main 10@L5.1@High
Codec ID                                 : V_MPEGH/ISO/HEVC
Duration                                 : 1 h 52 min
Bit rate                                 : 52.6 Mb/s
Width                                    : 3 840 pixels
Height                                   : 2 160 pixels
Display aspect ratio                     : 16:9
Frame rate mode                          : Constant
Frame rate                               : 23.976 (24000/1001) FPS
Color space                              : YUV
Chroma subsampling                       : 4:2:0 (Type 2)
Bit depth                                : 10 bits
Bits/(Pixel*Frame)                       : 0.264
Stream size                              : 41.2 GiB (88%)
Default                                  : Yes
Forced                                   : No
Color range                              : Limited
Color primaries                          : BT.2020
Transfer characteristics                 : PQ
Matrix coefficients                      : BT.2020 non-constant
Mastering display color primaries        : BT.2020
Mastering display luminance              : min: 0.0000 cd/m2, max: 1000 cd/m2
Maximum Content Light Level              : 992 cd/m2
Maximum Frame-Average Light Level        : 772 cd/m2

Audio #1
ID                                       : 2
Format                                   : DTS
Format/Info                              : Digital Theater Systems
Format profile                           : MA / Core
Codec ID                                 : A_DTS
Duration                                 : 1 h 52 min
Bit rate mode                            : Variable / Constant
Bit rate                                 : 3 557 kb/s / 1 509 kb/s
Channel(s)                               : 6 channels
Channel positions                        : Front: L C R, Side: L R, LFE
Sampling rate                            : 48.0 kHz
Frame rate                               : 93.750 FPS (512 SPF)
Bit depth                                : 24 bits
Compression mode                         : Lossless / Lossy
Stream size                              : 2.79 GiB (6%)
Title                                    : DTS-HD MA 5.1
Language                                 : Japanese
Default                                  : Yes
Forced                                   : No

Audio #2
ID                                       : 3
Format                                   : DTS
Format/Info                              : Digital Theater Systems
Format profile                           : MA / Core
Codec ID                                 : A_DTS
Duration                                 : 1 h 52 min
Bit rate mode                            : Variable / Constant
Bit rate                                 : 3 594 kb/s / 1 509 kb/s
Channel(s)                               : 6 channels
Channel positions                        : Front: L C R, Side: L R, LFE
Sampling rate                            : 48.0 kHz
Frame rate                               : 93.750 FPS (512 SPF)
Bit depth                                : 24 bits
Compression mode                         : Lossless / Lossy
Delay relative to video                  : 7 ms
Stream size                              : 2.82 GiB (6%)
Title                                    : DTS-HD MA 5.1
Language                                 : English
Default                                  : No
Forced                                   : No

Text #1
ID                                       : 4
Format                                   : PGS
Muxing mode                              : zlib
Codec ID                                 : S_HDMV/PGS
Codec ID/Info                            : Picture based subtitle format used on BDs/HD-DVDs
Duration                                 : 1 h 41 min
Bit rate                                 : 1 959 b/s
Count of elements                        : 200
Stream size                              : 1.42 MiB (0%)
Title                                    : English (Foreign)
Language                                 : English
Default                                  : No
Forced                                   : Yes

Text #2
ID                                       : 5
Format                                   : PGS
Muxing mode                              : zlib
Codec ID                                 : S_HDMV/PGS
Codec ID/Info                            : Picture based subtitle format used on BDs/HD-DVDs
Duration                                 : 1 h 51 min
Bit rate                                 : 33.4 kb/s
Count of elements                        : 3134
Stream size                              : 26.5 MiB (0%)
Title                                    : English
Language                                 : English
Default                                  : Yes
Forced                                   : No

Text #3
ID                                       : 6
Format                                   : PGS
Muxing mode                              : zlib
Codec ID                                 : S_HDMV/PGS
Codec ID/Info                            : Picture based subtitle format used on BDs/HD-DVDs
Duration                                 : 1 h 51 min
Bit rate                                 : 40.7 kb/s
Count of elements                        : 5164
Stream size                              : 32.5 MiB (0%)
Title                                    : English (SDH) (dub)
Language                                 : English
Default                                  : No
Forced                                   : No

Text #4
ID                                       : 7
Format                                   : PGS
Muxing mode                              : zlib
Codec ID                                 : S_HDMV/PGS
Codec ID/Info                            : Picture based subtitle format used on BDs/HD-DVDs
Duration                                 : 1 h 34 min
Bit rate                                 : 2 579 b/s
Count of elements                        : 218
Stream size                              : 1.74 MiB (0%)
Title                                    : English (Song)
Language                                 : English
Default                                  : No
Forced                                   : No

Text #5
ID                                       : 8
Format                                   : PGS
Muxing mode                              : zlib
Codec ID                                 : S_HDMV/PGS
Codec ID/Info                            : Picture based subtitle format used on BDs/HD-DVDs
Duration                                 : 1 h 50 min
Bit rate                                 : 30.6 kb/s
Count of elements                        : 3462
Stream size                              : 24.3 MiB (0%)
Title                                    : Chinese (Simplified)
Language                                 : Chinese
Default                                  : No
Forced                                   : No

Text #6
ID                                       : 9
Format                                   : PGS
Muxing mode                              : zlib
Codec ID                                 : S_HDMV/PGS
Codec ID/Info                            : Picture based subtitle format used on BDs/HD-DVDs
Duration                                 : 1 h 51 min
Bit rate                                 : 28.0 kb/s
Count of elements                        : 3074
Stream size                              : 22.3 MiB (0%)
Title                                    : French
Language                                 : French
Default                                  : No
Forced                                   : No

Text #7
ID                                       : 10
Format                                   : PGS
Muxing mode                              : zlib
Codec ID                                 : S_HDMV/PGS
Codec ID/Info                            : Picture based subtitle format used on BDs/HD-DVDs
Duration                                 : 1 h 51 min
Bit rate                                 : 42.8 kb/s
Count of elements                        : 3506
Stream size                              : 34.1 MiB (0%)
Title                                    : Japanese (SDH)
Language                                 : Japanese
Default                                  : No
Forced                                   : No

Text #8
ID                                       : 11
Format                                   : PGS
Muxing mode                              : zlib
Codec ID                                 : S_HDMV/PGS
Codec ID/Info                            : Picture based subtitle format used on BDs/HD-DVDs
Duration                                 : 1 h 51 min
Bit rate                                 : 26.8 kb/s
Count of elements                        : 2984
Stream size                              : 21.3 MiB (0%)
Title                                    : Spanish (Latin American)
Language                                 : Spanish
Default                                  : No
Forced                                   : No

Text #9
ID                                       : 12
Format                                   : ASS
Codec ID                                 : S_TEXT/ASS
Codec ID/Info                            : Advanced Sub Station Alpha
Duration                                 : 1 h 51 min
Bit rate                                 : 11.0 kb/s
Count of elements                        : 33906
Compression mode                         : Lossless
Stream size                              : 8.77 MiB (0%)
Title                                    : Arabic
Language                                 : Arabic
Default                                  : No
Forced                                   : No

Menu
00:00:00.000                             : en:Sky World
00:03:52.315                             : en:Boy Leaving the Island
00:07:13.433                             : en:Tokyo
00:11:51.210                             : en:K&A Planning
00:17:27.046                             : en:New Everyday
00:19:46.352                             : en:Rescued
00:22:25.261                             : en:100% Sunny Woman
00:26:08.066                             : en:Fish in the Sky
00:30:07.973                             : en:Initial Visit
00:34:27.983                             : en:Weather Business
00:38:29.807                             : en:Fireworks Display
00:41:36.494                             : en:Similar People
00:44:06.060                             : en:Weather Shrine Maiden
00:47:58.876                             : en:Criminal
00:52:11.462                             : en:Last Request
00:55:55.852                             : en:Confession
00:58:46.940                             : en:Chasing
01:01:42.532                             : en:Escape
01:05:18.581                             : en:Midsummer Snow
01:08:56.132                             : en:The Last Night
01:13:52.928                             : en:To That Light
01:16:58.697                             : en:Fine Weather
01:19:57.710                             : en:Escape
01:23:15.949                             : en:Tears
01:25:48.226                             : en:To an Abandoned Building
01:28:51.326                             : en:I Still Can't Love
01:33:02.869                             : en:Bluer Than the Sky
01:38:33.116                             : en:Tokyo Again
01:43:29.328                             : en:Fine
01:47:40.829                             : en:Ending Credits


الملفات ذات العلاقة بـ ( Wathering with You -Tenki no Ko- 2019 UHD BluRay 2160p DTS-HD MA 5.1 HEVC REMUX-FraMeSToR [ArabicSub] )
[مترجم] Kimi no Na Wa [BD 2160p 4K UHD Hi10P x265] 16 21 2.84 GB
Spies in Disguise (2019) [2160p] [Bluray] [YTS] 126 23 4.58 GB
Batman vs Teenage Mutant Ninja Turtles [2019] [BluRay] 2160p 4 2 2.18 GB
[Tenki no Ko] [ مترجم ] [1080] [BluRay] 3 0 2.09 GB
Tangled Ever After 2012 BluRay Remux HDT 46 8 1.57 GB

الرئيسية - قائمة ملفات التورنت - فيسبوك