انقر هنا لمشاهدة النسخة الكاملة للصفحة

تورنت - [مترجم] El Camino: A Breaking Bad Movie [2019] [WEBRip] 1080p

افلام اجنبيه الحجم : 3.77 GB التراكر: خارجي المتصلين : 324,283  اكتمل ( 1831 ) 11/10/2019 تحميل التورنت


 1 arabp2p.com

El Camino: A Breaking Bad Movie [2019] [WEBRip] 1080p

 2 arabp2p.com
:

MediaInfo

Video
ID : 1
Format : AVC
Format/Info : Advanced Video Codec
Format profile : Main@L4
Format settings : CABAC / 3 Ref Frames
Format settings, CABAC : Yes
Format settings, Reference frames : 3 frames
Codec ID : V_MPEG4/ISO/AVC
Duration : 2 h 2 min
Bit rate mode : Variable
Bit rate : 3 650 kb/s
Maximum bit rate : 5 475 kb/s
Width : 1 920 pixels
Height : 1 080 pixels
Display aspect ratio : 16:9
Frame rate mode : Constant
Frame rate : 24.000 FPS
Color space : YUV
Chroma subsampling : 4:2:0
Bit depth : 8 bits
Scan type : Progressive
Bits/(Pixel*Frame) : 0.073
Stream size : 3.11 GiB (82%)


Audio
ID : 2
Format : E-AC-3 JOC
Format/Info : Enhanced AC-3 with Joint Object Coding
Commercial name : Dolby Digital Plus with Dolby Atmos
Codec ID : A_EAC3
Duration : 2 h 2 min
Bit rate mode : Constant
Bit rate : 768 kb/s
Channel(s) : 6 channels
Channel layout : L R C LFE Ls Rs
Sampling rate : 48.0 kHz
Frame rate : 31.250 FPS (1536 SPF)
Compression mode : Lossy
Stream size : 674 MiB (17%)
Title : English
Language : English
Service kind : Complete Main
Default : Yes
Forced : No
Complexity index : 16
Number of dynamic objects : 15
Bed channel count : 1 channel

Text #3
ID : 5
Format : UTF-8
Codec ID : S_TEXT/UTF8
Codec ID/Info : UTF-8 Plain Text
Duration : 2 h 1 min
Bit rate : 63 b/s
Count of elements : 1210
Stream size : 56.4 KiB (0%)
Language : Arabic
Default : No
Forced : No




 3 arabp2p.com

 4 arabp2p.com
 5 arabp2p.com
 6 arabp2p.com

الملفات ذات العلاقة بـ ( [مترجم] El Camino: A Breaking Bad Movie [2019] [WEBRip] 1080p )
Midsommar [2019] [WEBRip] 1080p 53 16 2.40 GB
Ten Minutes Gone [2019] [WEBRip] 1080p 43 4 1.40 GB
Bad Kids Go To Hell 2012 WEBRip XviD 122 1448 708.08 MB
Indie Game The Movie 2012 WEBRip XviD-S4A 49 80 707.58 MB
Stuber [2019] [WEBRip] 720p 1919 660 797.35 MB
underworldمشاركة جميلة يعطيك العافية

الرئيسية - قائمة ملفات التورنت - فيسبوك