انقر هنا لمشاهدة النسخة الكاملة للصفحة

[تورنت] - [جزيرة الشيطان][1990][HDTV]

افلام عربيه الحجم : 1.83 GB التراكر: داخلي المتصلين : 0,12  اكتمل ( 32 ) 14/09/2020 تحميل التورنت


جزيرة الشيطان
اخراج: نادر جلال
تمثيل: عادل إمام.يسرا.أحمد راتب.حاتم ذو الفقار.نهى العمروسي.جمال إسماعيل.مصطفى متولي.سعيد طرابيك

 1 arabp2p.com

يسرنى أن أقدم لكم الفيلم العربي
جزيرة الشيطان- 1990


 2 arabp2p.com


معلومات عن الفيلم


 3 arabp2p.com
 4 arabp2p.com
 5 arabp2p.com
 6 arabp2p.com
 7 arabp2p.com
 8 arabp2p.com
 9 arabp2p.com
 10 arabp2p.com
 11 arabp2p.com
 12 arabp2p.com
 13 arabp2p.com


 14 arabp2p.com


Format                                   : Matroska
Format version                           : Version 4
File size                                : 1.83 GiB
Duration                                 : 2 h 15 min
Overall bit rate                         : 1 929 kb/s
Encoded date                             : UTC 2014-06-26 04:27:08
Writing application                      : HD MATV Systems DVB-S2 Satellite
Writing library                          : TeleDelta HDS2800

Video
ID                                       : 1
Format                                   : AVC
Format/Info                              : Advanced Video Codec
Format profile                           : Main@L4.1
Format settings                          : CABAC / 2 Ref Frames
Format settings, CABAC                   : Yes
Format settings, Reference frames        : 2 frames
Format settings, GOP                     : M=3, N=25
Muxing mode                              : Container profile=Baseline@3.0
Codec ID                                 : V_MPEG4/ISO/AVC
Duration                                 : 2 h 15 min
Bit rate                                 : 1 798 kb/s
Width                                    : 960 pixels
Height                                   : 720 pixels
Display aspect ratio                     : 1.404
Original display aspect ratio            : 4:3
Frame rate mode                          : Constant
Frame rate                               : 25.000 FPS
Color space                              : YUV
Chroma subsampling                       : 4:2:0
Bit depth                                : 8 bits
Scan type                                : Progressive
Bits/(Pixel*Frame)                       : 0.104
Stream size                              : 1.71 GiB (93%)
Language                                 : Arabic
Default                                  : Yes
Forced                                   : No

Audio
ID                                       : 2
Format                                   : AAC LC
Format/Info                              : Advanced Audio Codec Low Complexity
Codec ID                                 : A_AAC-2
Duration                                 : 2 h 15 min
Bit rate                                 : 128 kb/s
Channel(s)                               : 2 channels
Channel layout                           : L R
Sampling rate                            : 44.1 kHz
Frame rate                               : 43.066 FPS (1024 SPF)
Compression mode                         : Lossy
Delay relative to video                  : -40 ms
Stream size                              : 124 MiB (7%)
Language                                 : Arabic
Default                                  : Yes
Forced                                   : No










 15 arabp2p.com

الملفات ذات العلاقة بـ ( جزيرة الشيطان )
[جزيرة الشيطان][1990][Web-DL] 6 0 3.62 GB
[الشيطان يغني][1984][Web-DL] 3 1 1.79 GB
[الشيطان يعظ][1981][Web-DL] 1 0 2.97 GB
[عزازيل ابن الشيطان][2015][HDTV] 2 0 1.49 GB
[سوالف طفاش جزيرة الهلامايا][2016][DVDRip][بحريني] 1 0 2.05 GB

الرئيسية - قائمة ملفات التورنت - فيسبوك