انقر هنا لمشاهدة النسخة الكاملة للصفحة

تورنت - Nil Battey Sannata (2016) - DvdRip - X264 -Subbed Arabic

افلام هنديه الحجم : 695.57 MB التراكر: داخلي المتصلين : 0,2  اكتمل ( 30 ) 12/08/2016 تحميل التورنت

 1 arabp2p.com

Nil Battey Sannata (2016) - DvdRip - X264 -Subbed Arabic

(الترجمة VOBSUB مدمجة مع الفيلم)

 2 arabp2p.com

 3 arabp2p.com

ﻓﻴﻠﻢ الهند 100 دقيقة ﺗﻢ ﻋﺮﺿﻪ
تاريخ العرض: 22 أفريل 2016
تصنيف العمل: دراما عائلي
ﺇﺧﺮاﺝ: اشويني ايار تواري
ﺗﺄﻟﻴﻒ: اشويني ايار تواري
طاقم العمل:  صوارا بهاسكار, راتنا باثاك, ريا شوكلا


 4 arabp2p.com



 5 arabp2p.com

بعد نجاحه في البكالوريا شعر \"أبو\" بانه لن يتمكن من موصلة دراسته في الجامعة نظراً لكثرة المصاريف وعدم تمكن أمه من توفيرها متطلبات الدراسة.
وتحاول أمه مساعدته من خلال العمل الشق علها تستطيع توفير المال لإبنها...


 6 arabp2p.com

:
Complete name               : Nil Battey Sannata (2016) - DvdRip - X264 -Subbed Arabic.mkv
Format                      : Matroska
Format version              : Version 4 / Version 2
File size                   : 695 MiB
Duration                    : 1h 44mn
Overall bit rate            : 932 Kbps
Encoded date                : UTC 2016-08-11 14:35:46
Writing application         : mkvmerge v8.1.0 ('Psychedelic Postcard') 32bit
Writing library             : libebml v1.3.1 + libmatroska v1.4.2

Video
ID                          : 1
Format                      : AVC
Format/Info                 : Advanced Video Codec
Format profile              : High@L2.1
Format settings, CABAC      : Yes
Format settings, ReFrames   : 4 frames
Codec ID                    : V_MPEG4/ISO/AVC
Duration                    : 1h 44mn
Bit rate                    : 806 Kbps
Width                       : 624 pixels
Height                      : 272 pixels
Display aspect ratio        : 2.25:1
Frame rate mode             : Constant
Frame rate                  : 23.976 (24000/1001) fps
Color space                 : YUV
Chroma subsampling          : 4:2:0
Bit depth                   : 8 bits
Scan type                   : Progressive
Bits/(Pixel*Frame)          : 0.198
Stream size                 : 601 MiB (86%)
Writing library             : x264 core 148 r2638 7599210
Encoding settings           : cabac=1 / ref=3 / deblock=1:0:0 / *censored*yse=0x3:0x113 / me=hex / subme=7 / psy=1 / psy_rd=1.00:0.00 / mixed_ref=1 / me_range=16 / chroma_me=1 / trellis=1 / 8x8dct=1 / cqm=0 / deadzone=21,11 / fast_pskip=1 / chroma_qp_offset=-2 / threads=1 / lookahead_threads=1 / sliced_threads=0 / nr=0 / decimate=1 / interlaced=0 / bluray_compat=0 / constrained_intra=0 / bframes=3 / b_pyramid=2 / b_adapt=1 / b_bias=0 / direct=1 / weightb=1 / open_gop=0 / weightp=2 / keyint=240 / keyint_min=23 / scenecut=40 / intra_refresh=0 / rc_lookahead=40 / rc=2pass / mbtree=1 / bitrate=806 / ratetol=1.0 / qcomp=0.60 / qpmin=0 / qpmax=69 / qpstep=4 / cplxblur=20.0 / qblur=0.5 / ip_ratio=1.40 / aq=1:1.00
Default                     : Yes
Forced                      : No

Audio
ID                          : 2
Format                      : AAC
Format/Info                 : Advanced Audio Codec
Format profile              : HE-AAC / LC
Codec ID                    : A_AAC
Duration                    : 1h 44mn
Bit rate                    : 123 Kbps
Channel(s)                  : 6 channels
Channel positions           : Front: L C R, Side: L R, LFE
Sampling rate               : 48.0 KHz / 24.0 KHz
Frame rate                  : 23.438 fps (1024 spf)
Compression mode            : Lossy
Delay relative to video     : 31ms
Stream size                 : 92.1 MiB (13%)
Default                     : Yes
Forced                      : No

Text
ID                          : 3
Format                      : VobSub
Muxing mode                 : zlib
Codec ID                    : S_VOBSUB
Codec ID/Info               : Picture based subtitle format used on DVDs
Duration                    : 1h 42mn
Bit rate                    : 870 bps
Count of elements           : 1502
Stream size                 : 654 KiB (0%)
Language                    : Arabic
Default                     : No
Forced                      : No



 7 arabp2p.com

 8 arabp2p.com
 9 arabp2p.com
 10 arabp2p.com
 11 arabp2p.com
 12 arabp2p.com



 13 arabp2p.com


الملفات ذات العلاقة بـ ( Nil Battey Sannata (2016) - DvdRip - X264 -Subbed Arabic )
1920London (2016) - DvdRip - X264 -Subbed Arabic 3 0 696.50 MB
Phobia (2016) 720p DvDRip x264 AAC -Subbed Arabic 2 0 546.73 MB
Laal Rang (2016) [HINDI-1080p-DvDRip-x264- Subbed Arabic 1 0 1.95 GB
Housefull 3 2016 Hindi 720p DvDRip - Subbed Arabic 2 0 952.42 MB
Banjo (2016) - WebRip - X264 - Subbed Arabic 4 0 698.36 MB
zin123خطير بالمرة تسلم ايدك .
nemr23الف شكر اخى الغالى على الفيلم الجديد شكله واقعى
jobaofjordanمشكووووووور على المجهود الرائع

الرئيسية - قائمة ملفات التورنت - فيسبوك