انقر هنا لمشاهدة النسخة الكاملة للصفحة

تورنت - Monchora.2016.720p.WEB-DL.H264.AAC2.0.Subbed Arabic

افلام هنديه الحجم : 2.05 GB التراكر: داخلي المتصلين : 0,2  اكتمل ( 31 ) 31/12/2016 تحميل التورنت

 1 arabp2p.com

Monchora.2016.720p.WEB-DL.H264.AAC2.0.Subbed Arabic

مع الترجمة العربية

 2 arabp2p.com

 3 arabp2p.com

ﻓﻴﻠﻢ الهند 135 دقيقة ﺗﻢ ﻋﺮﺿﻪ
تاريخ العرض: 1 جانفي 2016
تصنيف العمل: دراما    رومنسي
ﺇﺧﺮاﺝ: سانديب راي (مخرج)
ﺗﺄﻟﻴﻒ: ساراديندو باندوباداي (رواية)  سانديب راي (سيناريو)  
طاقم العمل:  باران بانيرجي, عبير شاتيرجي, رايما سان ...


 4 arabp2p.com



 5 arabp2p.com

يدور الفيلم حول سارق يتحرك حسب أوامر ديباكار روي (عبير شاتيرجي)

 6 arabp2p.com


Code
Format                      : Matroska
Format version              : Version 4 / Version 2
File size                   : 2.05 GiB
Duration                    : 1 h 31 min
Overall bit rate            : 3 202 kb/s
Encoded date                : UTC 2016-12-31 06:06:59
Writing application         : mkvmerge v8.1.0 ('Psychedelic Postcard') 32bit
Writing library             : libebml v1.3.1 + libmatroska v1.4.2

Video
ID                          : 1
Format                      : AVC
Format/Info                 : Advanced Video Codec
Format profile              : High@L3.1
Format settings, CABAC      : Yes
Format settings, ReFrames   : 4 frames
Codec ID                    : V_MPEG4/ISO/AVC
Duration                    : 1 h 31 min
Bit rate                    : 3 014 kb/s
Width                       : 1 280 pixels
Height                      : 720 pixels
Display aspect ratio        : 16:9
Frame rate mode             : Constant
Frame rate                  : 25.000 FPS
Color space                 : YUV
Chroma subsampling          : 4:2:0
Bit depth                   : 8 bits
Scan type                   : Progressive
Bits/(Pixel*Frame)          : 0.131
Stream size                 : 1.92 GiB (94%)
Writing library             : x264 core 133 r2 a3ac64b
Encoding settings           : cabac=1 / ref=3 / deblock=1:0:0 / *censored*yse=0x3:0x113 / me=hex / subme=7 / psy=1 / psy_rd=1.00:0.00 / mixed_ref=1 / me_range=16 / chroma_me=1 / trellis=1 / 8x8dct=1 / cqm=0 / deadzone=21,11 / fast_pskip=1 / chroma_qp_offset=-2 / threads=12 / lookahead_threads=2 / sliced_threads=0 / nr=0 / decimate=1 / interlaced=0 / bluray_compat=0 / constrained_intra=0 / bframes=3 / b_pyramid=2 / b_adapt=1 / b_bias=0 / direct=1 / weightb=1 / open_gop=0 / weightp=2 / keyint=30 / keyint_min=3 / scenecut=40 / intra_refresh=0 / rc_lookahead=30 / rc=abr / mbtree=1 / bitrate=3014 / ratetol=1.0 / qcomp=0.60 / qpmin=0 / qpmax=69 / qpstep=4 / ip_ratio=1.40 / aq=1:1.00
Default                     : Yes
Forced                      : No

Audio
ID                          : 2
Format                      : AAC
Format/Info                 : Advanced Audio Codec
Format profile              : LC
Codec ID                    : A_AAC
Duration                    : 1 h 31 min
Bit rate                    : 192 kb/s
Channel(s)                  : 2 channels
Channel positions           : Front: L R
Sampling rate               : 48.0 kHz
Frame rate                  : 46.875 FPS (1024 spf)
Compression mode            : Lossy
Delay relative to video     : -43 ms
Stream size                 : 127 MiB (6%)
Language                    : Bengali
Default                     : Yes
Forced                      : No

Text
ID                          : 3
Format                      : UTF-8
Codec ID                    : S_TEXT/UTF8
Codec ID/Info               : UTF-8 Plain Text
Duration                    : 1 h 28 min
Bit rate                    : 109 b/s
Count of elements           : 1430
Stream size                 : 71.3 KiB (0%)
Language                    : Arabic
Default                     : No
Forced                      : No



 7 arabp2p.com

 8 arabp2p.com

 9 arabp2p.com

 10 arabp2p.com

 11 arabp2p.com

 12 arabp2p.com





 13 arabp2p.com


الملفات ذات العلاقة بـ ( Monchora.2016.720p.WEB-DL.H264.AAC2.0.Subbed Arabic )
Befikre (2016) 720p BluRay x264 - Subbed Arabic 6 1 1.64 GB
Housefull 3 2016 Hindi 720p DvDRip - Subbed Arabic 2 0 952.42 MB
Pink.2016.Hindi.720p.BluRay.x264-Subbed Arabic 4 0 1.12 GB
Phobia (2016) 720p DvDRip x264 AAC -Subbed Arabic 2 0 546.73 MB
Sardaar Gabbar Singh 2016.720p.X265-Subbed Arabic 1 0 800.77 MB
KhAiRi اخي العزيز الفيلم غير مدمج به الترجمه ولا يوجد بالفولدر اي ملفات ترجمه ياريت توضيح كيفيه تشغيل الترجمه مع الفيلم او ياريت مشكورا تبعتلي ملف ترجمته اكون شاكر ليك جداً إذا كنت تستخدم Media Player Classic قم بالضغط على يسار الفأرة داخل الفيلم ثم تذهب إلى Subtitle وتختار اللغة العربية كما موضح في الصورة http://www.m5zn.com/newuploads/2017/01/03/png//7d4b6d8bea70e96.png اما ان كنت تستخدم VLC فتذهب إلى Subtitle ثم Sub Track وتختار اللغة العربية كما هو مبين في الصورة http://www.m5zn.com/newuploads/2017/01/03/png//0ba9342c3c616da.png
mhbomberاخي العزيز الفيلم غير مدمج به الترجمه ولا يوجد بالفولدر اي ملفات ترجمه ياريت توضيح كيفيه تشغيل الترجمه مع الفيلم او ياريت مشكورا تبعتلي ملف ترجمته اكون شاكر ليك جداً
kaizokuيعطيكم العافية على الفلم

الرئيسية - قائمة ملفات التورنت - فيسبوك