انقر هنا لمشاهدة النسخة الكاملة للصفحة

تورنت - ANTH (1994) UNTOUCHED {EROS} DVD9 with arabic sub

افلام هنديه الحجم : 6.47 GB التراكر: داخلي المتصلين : 0,1  اكتمل ( 15 ) 25/11/2016 تحميل التورنت

 1 arabp2p.com

يسرني أن أقدم لكم
فيلم الأكشن والإثارة
ANTH (1994)
 2 arabp2p.com
 3 arabp2p.com
 4 arabp2p.com
 5 arabp2p.com

ترجمة المترجم القدير:
إيهاب نبيل نصار

تعديل التوقيت لهذه النسخة
عمرواحمدمحمد RAMBO23
 6 arabp2p.com
http://www.imdb.com/title/tt0135140/
 7 arabp2p.com
 8 arabp2p.com
 9 arabp2p.com
 10 arabp2p.com
 11 arabp2p.com
 12 arabp2p.com
 13 arabp2p.com
 14 arabp2p.com
 15 arabp2p.com
 16 arabp2p.com
 17 arabp2p.com
 18 arabp2p.com
 19 arabp2p.com
 20 arabp2p.com
General
source: ANTH (1994) UNTOUCHED {EROS} DVD9

Format                      : MPEG-PS
File size                   : 1 024 MiB
Duration                    : 23 min 18 s
Overall bit rate mode       : Variable
Overall bit rate            : 6 144 kb/s

Video
ID                          : 224 (0xE0)
Format                      : MPEG Video
Format version              : Version 2
Format profile              : Main@Main
Format settings, BVOP       : Yes
Format settings, Matrix     : Custom
Format settings, GOP        : M=3, N=15
Format settings, picture st : Frame
Duration                    : 23 min 17 s
Bit rate mode               : Variable
Bit rate                    : 5 573 kb/s
Maximum bit rate            : 7 000 kb/s
Width                       : 720 pixels
Height                      : 480 pixels
Display aspect ratio        : 4:3
Frame rate                  : 29.970 (30000/1001) FPS
Standard                    : NTSC
Color space                 : YUV
Chroma subsampling          : 4:2:0
Bit depth                   : 8 bits
Scan type                   : Interlaced
Scan order                  : Top Field First
Compression mode            : Lossy
Bits/(Pixel*Frame)          : 0.538
Time code of first frame    : 10:23:30:16
Time code source            : Group of pictures header
GOP, Open/Closed            : Closed
Stream size                 : 929 MiB (91%)

Audio
ID                          : 189 (0xBD)-128 (0x80)
Format                      : AC-3
Format/Info                 : Audio Coding 3
Mode extension              : CM (complete main)
Format settings, Endianness : Big
Muxing mode                 : DVD-Video
Duration                    : 23 min 18 s
Bit rate mode               : Constant
Bit rate                    : 448 kb/s
Channel(s)                  : 6 channels
Channel positions           : Front: L C R, Side: L R, LFE
Sampling rate               : 48.0 kHz
Frame rate                  : 31.250 FPS (1536 spf)
Bit depth                   : 16 bits
Compression mode            : Lossy
Delay relative to video     : -486 ms
Stream size                 : 74.7 MiB (7%)

Text
ID                          : 189 (0xBD)-32 (0x20)
Format                      : RLE
Format/Info                 : Run-length encoding
Muxing mode                 : DVD-Video
Delay relative to video     : 1 s 34 ms

Menu





 21 arabp2p.com


الملفات ذات العلاقة بـ ( ANTH (1994) UNTOUCHED {EROS} DVD9 with arabic sub )
Fan (2016) 1080p Untouched WEBHD AVC AAC ESub 1 1 3.97 GB
Bangistan (2015) 1080p Untouched WEBHD AVC AAC MSub [DDR] 8 4 5.67 GB
London Paris NewYork 2012 1080p Untouched WEBHD AVC AAC MSubs DDR 1 0 4.28 GB
Family 2006 dvd9 مترجم أكشن وجريمة أميتاب وأكشاى كومار 1 0 2.17 GB
Imtihaan.1994. DVDRip 1 0 1.46 GB
nemr23الف شكر اخى عمرو دائما متميز يا غالى تسلم ايدك على النسخة وتعديل الترجمة كل الشكر لاخى الغالى المترجم الكبير ايهاب نصار
lalmeedaجميل جداً عزيزي عمرو، ألف شكر لكَ على الإضافة المميزة، دائماً تتحفنا بأعمال راقية، لكَ مني كل التقدير.

الرئيسية - قائمة ملفات التورنت - فيسبوك