انقر هنا لمشاهدة النسخة الكاملة للصفحة

تورنت - Laal Rang (2016) [HINDI-1080p-DvDRip-x264- Subbed Arabic

افلام هنديه الحجم : 1.95 GB التراكر: داخلي المتصلين : 0,2  اكتمل ( 27 ) 09/11/2016 تحميل التورنت

 1 arabp2p.com

Laal Rang (2016) [HINDI-1080p-DvDRip-x264- Subbed Arabic

مع الترجمة العربية

 2 arabp2p.com

 3 arabp2p.com

ﻓﻴﻠﻢ الهند 145 دقيقة ﺗﻢ ﻋﺮﺿﻪ
تاريخ العرض: 22 ابريل 2016
تصنيف العمل: ﺗﺸﻮﻳﻖ ﻭ ﺇﺛﺎﺭﺓ
ﺇﺧﺮاﺝ: سيد أحمد أفزل (مخرج)
ﺗﺄﻟﻴﻒ: سيد أحمد أفزل (مؤلف)  بانكاج ماتا (مؤلف)
طاقم العمل: راجنايش دوجال  أكشاي أوبيريو  رانديب هوودا  بيا باجباي


 4 arabp2p.com



 5 arabp2p.com

يقوم المجرم شانكار بإدارة بنك للدم على نحو غير قانوني، لكنه في الوقت ذاته هو شخص محبوب للغاية من قبل الفقراء والمحتاجين، ومع ازدهار عمله ينضم مجرم آخر للعمل مع شانكار من أجل الحصول على المال بشكل سريع ﻹجتذاب الفتاة التي يحبها، لكن الأمور تخرج عن السيطرة حينما يقرر شانكار العمل لحسابه.

 6 arabp2p.com

:
Format                      : Matroska
Format version              : Version 4 / Version 2
File size                   : 1.95 GiB
Duration                    : 2 h 29 min
Overall bit rate            : 1 862 kb/s
Movie name                  : MAZE HDRelease
Encoded date                : UTC 2016-11-06 06:52:25
Writing application         : mkvmerge v8.1.0 ('Psychedelic Postcard') 32bit
Writing library             : libebml v1.3.1 + libmatroska v1.4.2

Video
ID                          : 1
Format                      : AVC
Format/Info                 : Advanced Video Codec
Format profile              : High@L4
Format settings, CABAC      : Yes
Format settings, ReFrames   : 4 frames
Codec ID                    : V_MPEG4/ISO/AVC
Duration                    : 2 h 29 min
Bit rate                    : 1 412 kb/s
Width                       : 1 920 pixels
Height                      : 816 pixels
Display aspect ratio        : 2.35:1
Frame rate mode             : Constant
Frame rate                  : 23.976 (24000/1001) FPS
Color space                 : YUV
Chroma subsampling          : 4:2:0
Bit depth                   : 8 bits
Scan type                   : Progressive
Bits/(Pixel*Frame)          : 0.038
Stream size                 : 1.48 GiB (76%)
Writing library             : x264 core 148 r2638 7599210
Encoding settings           : cabac=1 / ref=3 / deblock=1:0:0 / *censored*yse=0x3:0x113 / me=hex / subme=7 / psy=1 / psy_rd=1.00:0.00 / mixed_ref=1 / me_range=16 / chroma_me=1 / trellis=1 / 8x8dct=1 / cqm=0 / deadzone=21,11 / fast_pskip=1 / chroma_qp_offset=-2 / threads=6 / lookahead_threads=1 / sliced_threads=0 / nr=0 / decimate=1 / interlaced=0 / bluray_compat=0 / constrained_intra=0 / bframes=3 / b_pyramid=2 / b_adapt=1 / b_bias=0 / direct=1 / weightb=1 / open_gop=0 / weightp=2 / keyint=240 / keyint_min=23 / scenecut=40 / intra_refresh=0 / rc_lookahead=40 / rc=2pass / mbtree=1 / bitrate=1412 / ratetol=1.0 / qcomp=0.60 / qpmin=0 / qpmax=69 / qpstep=4 / cplxblur=20.0 / qblur=0.5 / ip_ratio=1.40 / aq=1:1.00
Default                     : Yes
Forced                      : No

Audio
ID                          : 2
Format                      : AC-3
Format/Info                 : Audio Coding 3
Mode extension              : CM (complete main)
Format settings, Endianness : Big
Codec ID                    : A_AC3
Duration                    : 2 h 29 min
Bit rate mode               : Constant
Bit rate                    : 448 kb/s
Channel(s)                  : 6 channels
Channel positions           : Front: L C R, Side: L R, LFE
Sampling rate               : 48.0 kHz
Frame rate                  : 31.250 FPS (1536 spf)
Compression mode            : Lossy
Delay relative to video     : 15 ms
Stream size                 : 481 MiB (24%)
Language                    : English
Default                     : Yes
Forced                      : No

Text
ID                          : 3
Format                      : UTF-8
Codec ID                    : S_TEXT/UTF8
Codec ID/Info               : UTF-8 Plain Text
Duration                    : 2 h 24 min
Bit rate                    : 71 b/s
Count of elements           : 1733
Stream size                 : 75.9 KiB (0%)
Language                    : Arabic
Default                     : No
Forced                      : No

Menu
00:00:00.000                : en:Chapter 01
00:05:48.567                : en:Chapter 02
00:07:53.368                : en:Chapter 03
00:09:38.802                : en:Chapter 04
00:20:54.670                : en:Chapter 05
00:32:04.538                : en:Chapter 06
00:40:38.638                : en:Chapter 07
00:42:16.506                : en:Chapter 08
00:45:52.173                : en:Chapter 09
00:47:23.007                : en:Chapter 10
00:52:51.007                : en:Chapter 11
01:02:42.007                : en:Chapter 12
01:03:28.908                : en:Chapter 13
01:04:54.475                : en:Chapter 14
01:07:22.842                : en:Chapter 15
01:13:33.842                : en:Chapter 16
01:27:16.909                : en:Chapter 17
01:37:31.610                : en:Chapter 18
01:48:37.610                : en:Chapter 19
01:50:01.643                : en:Chapter 20
01:59:34.043                : en:Chapter 21
02:12:38.777                : en:Chapter 22
02:15:50.044                : en:Chapter 23
02:18:34.978                : en:Chapter 24
02:22:18.712                : en:Chapter 25
02:26:46.546                : en:Chapter 26



 7 arabp2p.com

 8 arabp2p.com

 9 arabp2p.com

 10 arabp2p.com

 11 arabp2p.com

 12 arabp2p.com




 13 arabp2p.com


الملفات ذات العلاقة بـ ( Laal Rang (2016) [HINDI-1080p-DvDRip-x264- Subbed Arabic )
Housefull 3 2016 Hindi 720p DvDRip - Subbed Arabic 2 0 952.42 MB
Pink.2016.Hindi.720p.BluRay.x264-Subbed Arabic 7 0 1.12 GB
1920London (2016) - DvdRip - X264 -Subbed Arabic 2 0 696.50 MB
Nil Battey Sannata (2016) - DvdRip - X264 -Subbed Arabic 2 0 695.57 MB
Phobia (2016) 720p DvDRip x264 AAC -Subbed Arabic 2 0 546.73 MB
cr9123السلام عليكم ارجو منكم تعديل الترجمة لانها غير صحيحة ويوجد فيها اخطاء كثيرة .
nemr23الف شكر يا نجم النجوم

الرئيسية - قائمة ملفات التورنت - فيسبوك