انقر هنا لمشاهدة النسخة الكاملة للصفحة

تورنت - Riddick (2013) DVDRip XviD-MAXSPEED

افلام اجنبيه الحجم : 1.42 GB التراكر: خارجي المتصلين : 137,818  اكتمل ( 10 ) 30/11/2013 تحميل التورنت




بسم الله الرحمن الرحيم



السلام عليكم ورحمة الله وبركاته













 1 arabp2p.com


Code:
Riddick (2013) DVDRip XviD-MAXSPEED Format : AVI Format/Info : Audio Video Interleave Format profile : OpenDML Format settings : rec File size : 1.42 GiB Duration : 1h 58mn Overall bit rate : 1 710 Kbps Writing application : VirtualDubMod 1.5.10.2 (build 2542/release) Writing library : VirtualDubMod build 2542/release Original source form : MAX TORRENTZ Copyright : SIGISMUNT Video ID : 0 Format : MPEG-4 Visual Format profile : Advanced Simple@L5 Format settings, BVOP : 1 Format settings, QPel : No Format settings, GMC : No warppoints Format settings, Matrix : Default (MPEG) Codec ID : XVID Codec ID/Hint : XviD Duration : 1h 58mn Bit rate : 1 512 Kbps Width : 720 pixels Height : 304 pixels Display aspect ratio : 2.35:1 Frame rate : 29.970 fps Color space : YUV Chroma subsampling : 4:2:0 Bit depth : 8 bits Scan type : Progressive Compression mode : Lossy Bits/(Pixel*Frame) : 0.231 Stream size : 1.25 GiB (88%) Writing library : XviD 73 Audio ID : 1 Format : AC-3 Format/Info : Audio Coding 3 Mode extension : CM (complete main) Format settings, Endianness : Big Codec ID : 2000 Duration : 1h 58mn Bit rate mode : Constant Bit rate : 192 Kbps Channel(s) : 6 channels Channel positions : Front: L C R, Side: L R, LFE Sampling rate : 48.0 KHz Bit depth : 16 bits Compression mode : Lossy Stream size : 163 MiB (11%) Alignment : Aligned on interleaves Interleave, duration : 64 ms (1.92 video frames) Interleave, preload duration : 192 ms Source: DVD (perfect a/v/sync quality,sample included) This torrent is not seedbox supported,please seed it to the MAX Note:If you have something to offer as early releases,seedboxes, links,accounts,etc please contact us on torentz 3xforum ro How To Get Your MAXSPEED (uTorrent) Torrent Client - Preferences - Bandwidth - Number of connections - Set aprox. 500 for each Torrent Client - Preferences - BiTorrent - Protocol Encryption - Forced Bandwidth Allocation - High (Set download/upload limit - Unlimited) Stop Other Active Torrents - Start downloading and wait for connections. Enjoy and Seed for at least 1:1 ratio. Don't forget to say thanks/leave reviews. If screens/Caps image host is dead google search \"release name\"\"screens\" or \"sample\". Greets to all actual/future p2p/scene QUALITY groups and affiliate websites. Don't trust IMDb robot or bad ratings,always watch some trailers first. Ignore stupid comments/fake/mislabeled/no-DVDrips/CAM/TS/RAR uploads. Please spread this release/torrent to your friends/forums/etc. If you need translation subs visit some subtitles sites. Report if you see online streaming or other spam links. Recommended movie player VLC PLAYER




 2 arabp2p.com
 3 arabp2p.com
 4 arabp2p.com
 5 arabp2p.com













;)                ;)                   ;)    





الملفات ذات العلاقة بـ ( Riddick (2013) DVDRip XviD-MAXSPEED )
Homefront (2013) DVDRip XviD-MAXSPEED 9949 3744 1.50 GB
Captain Phillips (2013) DVDRip XviD-MAXSPEED 2881 709 1.36 GB
The Hunger Catching Fire (2013) DVDRip XviD-MAXSPEED 5134 2886 1.56 GB
Gravity (2013) DVDSCR XviD-MAXSPEED 139 20 1.34 GB
The Hobbit The Desolation of Smaug (2013) DVDSCR XviD-MAXSPEED 4040 18586 1.91 GB
aseefمممممممممممممممممششششششششششششششششششششششششششششششش ككككككككككووووووووووورررررررررررررررررررررررررين

الرئيسية - قائمة ملفات التورنت - فيسبوك