انقر هنا لمشاهدة النسخة الكاملة للصفحة

تورنت - Line.Walker.2016.MANDARIN.720p.BRRip-Subbed Arabic

افلام آسيوية الحجم : 800.20 MB التراكر: داخلي المتصلين : 0,0  اكتمل ( 42 ) 07/12/2016 تحميل التورنت

 1 arabp2p.com

Line.Walker.2016.MANDARIN.720p.BRRip-Subbed Arabic

مع الترجمة العربية

 2 arabp2p.com

 3 arabp2p.com

ﻓﻴﻠﻢ الصين 129 دقيقة ﺗﻢ ﻋﺮﺿﻪ
تاريخ العرض: 16 أوت 2016
تصنيف العمل: جريمة - اثارة - أكشن
ﺇﺧﺮاﺝ: جاز بوون (مخرج)
ﺗﺄﻟﻴﻒ: كات كوان (سيناريو وحوار)
طاقم العمل:  نيك شونغ   لويس كوو   فرانسيس أن جي


 4 arabp2p.com



 5 arabp2p.com

العديد من رجال الشرطة يعملونَ متخفيين بين العصابات. وبسبب بعض الأخطاء تمّ محو كافة الهويات السرية من قاعدة بيانات الشرطة.
و تتلقى العميلة السرية دينغ رسالة مشفرة من شخص يُدعى بلاك جاك، يدّعي بأنه عميل سري فقد الاتصال مع الشرطة، حينها تبدأ مهمة وحدة الاستخبارات بالبحث عن بلاك جاك.


 6 arabp2p.com


Code
Format                      : Matroska
Format version              : Version 4 / Version 2
File size                   : 800 MiB
Duration                    : 1 h 48 min
Overall bit rate            : 1 027 kb/s
Encoded date                : UTC 2016-12-07 20:09:07
Writing application         : mkvmerge v8.1.0 ('Psychedelic Postcard') 32bit
Writing library             : libebml v1.3.1 + libmatroska v1.4.2

Video
ID                          : 1
Format                      : AVC
Format/Info                 : Advanced Video Codec
Format profile              : High@L4
Format settings, CABAC      : Yes
Format settings, ReFrames   : 5 frames
Codec ID                    : V_MPEG4/ISO/AVC
Duration                    : 1 h 48 min
Bit rate                    : 915 kb/s
Width                       : 1 280 pixels
Height                      : 544 pixels
Display aspect ratio        : 2.35:1
Frame rate mode             : Constant
Frame rate                  : 24.000 FPS
Color space                 : YUV
Chroma subsampling          : 4:2:0
Bit depth                   : 8 bits
Scan type                   : Progressive
Bits/(Pixel*Frame)          : 0.055
Stream size                 : 712 MiB (89%)
Writing library             : x264 core 148 r2694 3b70645
Encoding settings           : cabac=1 / ref=5 / deblock=1:-1:-1 / *censored*yse=0x3:0x113 / me=umh / subme=7 / psy=1 / psy_rd=1.00:0.00 / mixed_ref=1 / me_range=16 / chroma_me=1 / trellis=2 / 8x8dct=1 / cqm=0 / deadzone=21,11 / fast_pskip=1 / chroma_qp_offset=-2 / threads=17 / lookahead_threads=2 / sliced_threads=0 / nr=0 / decimate=1 / interlaced=0 / bluray_compat=0 / constrained_intra=0 / bframes=3 / b_pyramid=0 / b_adapt=1 / b_bias=0 / direct=3 / weightb=1 / open_gop=0 / weightp=2 / keyint=240 / keyint_min=24 / scenecut=40 / intra_refresh=0 / rc_lookahead=40 / rc=2pass / mbtree=1 / bitrate=915 / ratetol=1.0 / qcomp=0.60 / qpmin=0 / qpmax=69 / qpstep=4 / cplxblur=20.0 / qblur=0.5 / vbv_maxrate=20000 / vbv_bufsize=25000 / nal_hrd=none / filler=0 / ip_ratio=1.40 / aq=1:1.00
Default                     : Yes
Forced                      : No

Audio
ID                          : 2
Format                      : AAC
Format/Info                 : Advanced Audio Codec
Format profile              : LC
Codec ID                    : A_AAC
Duration                    : 1 h 48 min
Bit rate                    : 110 kb/s
Channel(s)                  : 2 channels
Channel positions           : Front: L R
Sampling rate               : 48.0 kHz
Frame rate                  : 46.875 FPS (1024 spf)
Compression mode            : Lossy
Stream size                 : 85.6 MiB (11%)
Language                    : Chinese
Default                     : Yes
Forced                      : No

Text #1
ID                          : 3
Format                      : UTF-8
Codec ID                    : S_TEXT/UTF8
Codec ID/Info               : UTF-8 Plain Text
Duration                    : 1 h 46 min
Bit rate                    : 51 b/s
Count of elements           : 1053
Stream size                 : 40.1 KiB (0%)
Language                    : Arabic
Default                     : Yes
Forced                      : No

Text #2
ID                          : 4
Format                      : ASS
Codec ID                    : S_TEXT/ASS
Codec ID/Info               : Advanced Sub Station Alpha
Duration                    : 1 h 46 min
Bit rate                    : 80 b/s
Count of elements           : 1053
Compression mode            : Lossless
Stream size                 : 62.6 KiB (0%)
Language                    : Arabic
Default                     : No
Forced                      : No



 7 arabp2p.com

 8 arabp2p.com

 9 arabp2p.com

 10 arabp2p.com

 11 arabp2p.com

 12 arabp2p.com




 13 arabp2p.com


الملفات ذات العلاقة بـ ( Line.Walker.2016.MANDARIN.720p.BRRip-Subbed Arabic )
The.Road.Home.1999.Mandarin.DVDRip.XViD-Eselworx+ الترجمة 7 5 700.09 MB
The Front Line + الترجمة 26 310 3.84 GB
House of the Disappeared 2016 HDRip 720p H264 AAC ArabicSub-Lp2p 2 1 1.20 GB
The Front Line 2011 DVDRip XviD AC3-ViSiON +الترجمة 70 59 1.74 GB
Saawariya 2007 arabic 3 1 2.19 GB
Hokagehttp://www.arabp2p.com/gifs/3.gif

الرئيسية - قائمة ملفات التورنت - فيسبوك