انقر هنا لمشاهدة النسخة الكاملة للصفحة

تورنت - It Chapter Two [2019] [HDRIP] 720p

افلام اجنبيه الحجم : 1.72 GB التراكر: خارجي المتصلين : 10,51  اكتمل ( 955 ) 10/10/2019 تحميل التورنت


 1 arabp2p.com

It Chapter Two [2019] [HDRIP] 720p

 2 arabp2p.com

:


General
Complete name               : It.Chapter.Two.2019.HC.HDRip.XviD.B4ND1T69.avi
Format                      : AVI
Format/Info                 : Audio Video Interleave
File size                   : 1.72 GiB
Duration                    : 2 h 44 min
Overall bit rate            : 1 492 kb/s

Video
ID                          : 0
Format                      : MPEG-4 Visual
Format profile              : Advanced Simple@L4
Format settings, BVOP       : 2
Format settings, QPel       : No
Format settings, GMC        : No warppoints
Format settings, Matrix     : Default (H.263)
Codec ID                    : XVID
Codec ID/Hint               : XviD
Duration                    : 2 h 44 min
Bit rate                    : 1 350 kb/s
Width                       : 720 pixels
Height                      : 304 pixels
Display aspect ratio        : 2.35:1
Frame rate                  : 30.000 FPS
Color space                 : YUV
Chroma subsampling          : 4:2:0
Bit depth                   : 8 bits
Scan type                   : Progressive
Compression mode            : Lossy
Bits/(Pixel*Frame)          : 0.206
Stream size                 : 1.55 GiB (90%)
Writing library             : XviD 64

Audio
ID                          : 1
Format                      : MPEG Audio
Format version              : Version 1
Format profile              : Layer 3
Codec ID                    : 55
Codec ID/Hint               : MP3
Duration                    : 2 h 44 min
Bit rate mode               : Constant
Bit rate                    : 128 kb/s
Channel(s)                  : 2 channels
Sampling rate               : 48.0 kHz
Compression mode            : Lossy
Stream size                 : 151 MiB (9%)
Alignment                   : Aligned on interleaves
Interleave, duration        : 24  ms (0.72 video frame)





 3 arabp2p.com

 4 arabp2p.com
 5 arabp2p.com
 6 arabp2p.com
 7 arabp2p.com

الملفات ذات العلاقة بـ ( It Chapter Two [2019] [HDRIP] 720p )
Fast.&.Furious.Presents.Hobbs.&.Shaw.2019.1080p.HC.HDRip 677 434 1.60 GB
Insidious: Chapter 2 (2013) 1080p 8282 3410 1.65 GB
Chapter 27 (2007) DVDRiP XviD - DvF + الترجمة 16 1 699.97 MB
Khiladi 786 - 720p - HDRip 481 3396 3.03 GB
3G - (2013) - HDRIP - 720P - X264 160 1191 596.37 MB
underworldمشاركة جميلة يعطيك العافية

الرئيسية - قائمة ملفات التورنت - فيسبوك