انقر هنا لمشاهدة النسخة الكاملة للصفحة

تورنت - Homefront (2013) DVDRip XviD-MAXSPEED

افلام اجنبيه الحجم : 1.50 GB التراكر: خارجي المتصلين : 3744,9949  اكتمل ( 10 ) 12/02/2014 تحميل التورنت


 1 arabp2p.com

 2 arabp2p.com

Code:

Homefront (2013) DVDRip XviD-MAXSPEED
Format                                   : AVI
Format/Info                              : Audio Video Interleave
Format profile                           : OpenDML
Format settings                          : rec
File size                                : 1.49 GiB
Duration                                 : 1h 35mn
Overall bit rate                         : 2 231 Kbps
Writing application                      : VirtualDubMod 1.5.10.2 (build 2542/release)
Writing library                          : VirtualDubMod build 2542/release
Original source form                     : MAX TORRENTZ
Copyright                                : SIGISMUNT

Video
ID                                       : 0
Format                                   : MPEG-4 Visual
Format profile                           : Advanced Simple@L5
Format settings, BVOP                    : 2
Format settings, QPel                    : No
Format settings, GMC                     : No warppoints
Format settings, Matrix                  : Default (MPEG)
Codec ID                                 : XVID
Codec ID/Hint                            : XviD
Duration                                 : 1h 35mn
Bit rate                                 : 1 906 Kbps
Width                                    : 720 pixels
Height                                   : 400 pixels
Display aspect ratio                     : 16:9
Frame rate                               : 25.000 fps
Color space                              : YUV
Chroma subsampling                       : 4:2:0
Bit depth                                : 8 bits
Scan type                                : Progressive
Compression mode                         : Lossy
Bits/(Pixel*Frame)                       : 0.265
Stream size                              : 1.28 GiB (85%)
Writing library                          : XviD 1.2.1 (UTC 2008-12-04)

Audio
ID                                       : 1
Format                                   : AC-3
Format/Info                              : Audio Coding 3
Mode extension                           : CM (complete main)
Format settings, Endianness              : Big
Codec ID                                 : 2000
Duration                                 : 1h 35mn
Bit rate mode                            : Constant
Bit rate                                 : 320 Kbps
Channel(s)                               : 6 channels
Channel positions                        : Front: L C R, Side: L R, LFE
Sampling rate                            : 48.0 KHz
Bit depth                                : 16 bits
Compression mode                         : Lossy
Stream size                              : 219 MiB (14%)
Alignment                                : Aligned on interleaves
Interleave, duration                     : 64 ms (1.60 video frames)
Interleave, preload duration             : 192 ms

الملفات ذات العلاقة بـ ( Homefront (2013) DVDRip XviD-MAXSPEED )
Riddick (2013) DVDRip XviD-MAXSPEED 818 137 1.42 GB
Captain Phillips (2013) DVDRip XviD-MAXSPEED 2881 709 1.36 GB
The Hunger Catching Fire (2013) DVDRip XviD-MAXSPEED 5134 2886 1.56 GB
The.Marine.3.Homefront.2013 BRRip XViD 197 1318 716.38 MB
Gravity (2013) DVDSCR XviD-MAXSPEED 139 20 1.34 GB

الرئيسية - قائمة ملفات التورنت - فيسبوك