انقر هنا لمشاهدة النسخة الكاملة للصفحة

تورنت - مدبلج للعربية Toy Story 2019 4K x265

افلام مدبلجه عربي الحجم : 12.47 GB التراكر: داخلي المتصلين : 3,22  اكتمل ( 43 ) 11/10/2019 تحميل التورنت

 1 arabp2p.com
اعتمدت في الصوت على النسخة التي رفعها الاخ العزيز alrmothe


بعض اللقطات الخاصة بالنسخة :

 2 arabp2p.com

 3 arabp2p.com

 4 arabp2p.com

 5 arabp2p.com
وهذه معلومات عن النسخة :


Code
General
Unique ID                   : 296057857855430200863413051457258781332 (0xDEBAAB5BEE17F3281A7945CD64F9FA94)
Complete name               : C:UsersAdministratorDownloadsToy.Story.4.2019.2160p.BluRay.x265.10bit.SDR.Ac3.Arabic.AflamHQ.CoToy.Story.4.2019.2160p.BluRay.x265.10bit.SDR.Ac3.Arabic.AflamHQ.Co.mkv
Format                      : Matroska
Format version              : Version 4
File size                   : 12.4 GiB
Duration                    : 1 h 40 min
Overall bit rate            : 17.8 Mb/s
Movie name                  : Toy.Story.4.2019.2160p.BluRay.x265.10bit.SDR.Ac3.Arabic.AflamHQ.Co
Encoded date                : UTC 2019-10-11 10:45:09
Writing application         : mkvmerge v34.0.0 ('Sight and Seen') 64-bit
Writing library             : libebml v1.3.7 + libmatroska v1.5.0
Cover                       : Yes
Attachments                 : small_cover.jpg / small_cover_land.jpg / cover.jpg / cover_land.jpg

Video
ID                          : 1
Format                      : HEVC
Format/Info                 : High Efficiency Video Coding
Format profile              : Main 10@L5.1@High
Codec ID                    : V_MPEGH/ISO/HEVC
Duration                    : 1 h 40 min
Bit rate                    : 17.4 Mb/s
Width                       : 3 840 pixels
Height                      : 1 608 pixels
Display aspect ratio        : 2.40:1
Frame rate mode             : Constant
Frame rate                  : 23.976 (24000/1001) FPS
Color space                 : YUV
Chroma subsampling          : 4:2:0
Bit depth                   : 10 bits
Bits/(Pixel*Frame)          : 0.118
Stream size                 : 12.2 GiB (98%)
Title                       : Toy.Story.4.2019.2160p.BluRay.x265.10bit.SDR.
Writing library             : x265 3.0+1-ed72af837053:[Windows][GCC 8.2.0][64 bit] 10bit
Encoding settings           : cpuid=1111039 / frame-threads=16 / numa-pools=44,44 / wpp / no-pmode / no-pme / no-psnr / no-ssim / log-level=2 / input-csp=1 / input-res=3840x1608 / interlace=0 / total-frames=143939 / level-idc=51 / high-tier=1 / uhd-bd=0 / ref=3 / no-allow-non-conformance / repeat-headers / annexb / aud / hrd / info / hash=0 / no-temporal-layers / no-open-gop / min-keyint=1 / keyint=24 / gop-lookahead=0 / bframes=6 / b-adapt=2 / b-pyramid / bframe-bias=0 / rc-lookahead=25 / lookahead-slices=4 / scenecut=40 / radl=0 / no-splice / no-intra-refresh / ctu=64 / min-cu-size=8 / no-rect / no-amp / max-tu-size=32 / tu-inter-depth=1 / tu-intra-depth=1 / limit-tu=0 / rdoq-level=0 / dynamic-rd=0.00 / no-ssim-rd / signhide / no-tskip / nr-intra=0 / nr-inter=0 / no-constrained-intra / strong-intra-smoothing / max-merge=2 / limit-refs=3 / no-limit-modes / me=1 / subme=2 / merange=57 / temporal-mvp / weightp / no-weightb / no-*censored*yze-src-pics / deblock=1:1 / no-sao / no-sao-non-deblock / rd=3 / no-early-skip / rskip / no-fast-intra / no-tskip-fast / no-cu-lossless / no-b-intra / no-splitrd-skip / rdpenalty=0 / psy-rd=0.40 / psy-rdoq=0.00 / no-rd-refine / no-lossless / cbqpoffs=0 / crqpoffs=0 / rc=crf / crf=16.0 / qcomp=0.60 / qpstep=4 / stats-write=0 / stats-read=0 / vbv-maxrate=160000 / vbv-bufsize=160000 / vbv-init=0.9 / crf-max=0.0 / crf-min=0.0 / ipratio=1.40 / pbratio=1.30 / aq-mode=1 / aq-strength=0.40 / cutree / zone-count=0 / no-strict-cbr / qg-size=32 / no-rc-grain / qpmax=69 / qpmin=0 / no-const-vbv / sar=1 / overscan=0 / videoformat=5 / range=0 / colorprim=2 / transfer=2 / colormatrix=2 / chromaloc=0 / display-window=0 / max-cll=0,0 / min-luma=0 / max-luma=1023 / log2-max-poc-lsb=8 / vui-timing-info / vui-hrd-info / slices=1 / opt-qp-pps / opt-ref-list-length-pps / no-multi-pass-opt-rps / scenecut-bias=0.05 / no-opt-cu-delta-qp / no-aq-motion / no-hdr / no-hdr-opt / no-dhdr10-opt / no-idr-recovery-sei / *censored*ysis-reuse-level=5 / scale-factor=0 / refine-intra=0 / refine-inter=0 / refine-mv=0 / refine-ctu-distortion=0 / no-limit-sao / ctu-info=0 / no-lowpass-dct / refine-*censored*ysis-type=0 / copy-pic=1 / max-ausize-factor=1.0 / no-dynamic-refine / no-single-sei / no-hevc-aq / qp-adaptation-range=1.00
Default                     : Yes
Forced                      : No

Audio
ID                          : 2
Format                      : AC-3
Format/Info                 : Audio Coding 3
Commercial name             : Dolby Digital
Codec ID                    : A_AC3
Duration                    : 1 h 40 min
Bit rate mode               : Constant
Bit rate                    : 384 kb/s
Channel(s)                  : 6 channels
Channel layout              : L R C LFE Ls Rs
Sampling rate               : 48.0 kHz
Frame rate                  : 31.250 FPS (1536 SPF)
Bit depth                   : 16 bits
Compression mode            : Lossy
Stream size                 : 275 MiB (2%)
Title                       : AflamHQ release
Language                    : Arabic
Service kind                : Complete Main
Default                     : Yes
Forced                      : No

Menu
00:00:00.000                : en:00:00:00.000
00:05:39.798                : en:00:05:39.798
00:11:21.097                : en:00:11:21.097
00:15:06.239                : en:00:15:06.239
00:19:01.140                : en:00:19:01.140
00:20:52.042                : en:00:20:52.042
00:22:43.821                : en:00:22:43.821
00:26:11.111                : en:00:26:11.111
00:27:47.082                : en:00:27:47.082
00:32:11.846                : en:00:32:11.846
00:36:17.425                : en:00:36:17.425
00:40:34.640                : en:00:40:34.640
00:42:56.699                : en:00:42:56.699
00:44:26.872                : en:00:44:26.872
00:46:39.380                : en:00:46:39.380
00:48:06.175                : en:00:48:06.175
00:49:18.664                : en:00:49:18.664
00:52:25.809                : en:00:52:25.809
00:53:58.568                : en:00:53:58.568
00:54:34.479                : en:00:54:34.479
00:59:06.960                : en:00:59:06.960
01:01:30.645                : en:01:01:30.645
01:04:40.752                : en:01:04:40.752
01:07:25.249                : en:01:07:25.249
01:09:31.042                : en:01:09:31.042
01:10:54.834                : en:01:10:54.834
01:12:05.154                : en:01:12:05.154
01:15:03.040                : en:01:15:03.040
01:17:29.770                : en:01:17:29.770
01:18:04.846                : en:01:18:04.846
01:19:21.840                : en:01:19:21.840
01:19:48.116                : en:01:19:48.116
01:22:24.940                : en:01:22:24.940
01:29:00.293                : en:01:29:00.293




في الختام ان شاء الله هذا العمل البسيط يرقى لتطلعات الجميع وانتظروني في رفع نسخ انمي اخرى بجودة فوركاي مدبلجة

الملفات ذات العلاقة بـ ( مدبلج للعربية Toy Story 2019 4K x265 )
الفيلم التركي لهيب الثأر مدبلج للعربية 2 1 2.34 GB
خريف أيلول مدبلج للعربية بجودة HD720p 3 0 1.83 GB
مدبلج للعربية [Mowgli 2018 [1080p][WEB-DL][NETFLIX 6 0 4.17 GB
[مدبلج للعربية] [Splitting Adam 2015 [1080p] [Web-DL 1 0 3.32 GB
1981 Lion of The Desert - عمر المختار 1080 HD مدبلج للعربية 4 0 6.77 GB
rosalindaجميل جدا سلمت يداك
الهماميمشكور يا غالي على الفلم
GHAZALOتسلم الأيادي إفتقدنا أعمالك وحصرياتك أرجو أن تكون هذه غيض من فيض
Maldinyشكرا يا ورد
karim771مشكور اخي يا حبذا لو تركت HDR métadonnées
zin123تسلم ايدك يا مان وجودة قوية بلاشك .
MOHAMED62https://www9.0zz0.com/2019/08/19/21/148550907.gif
AS007شكرااااااااااااااااااااا
adbenhttp://img911.imageshack.us/img911/438/5jBtKs.gif

الرئيسية - قائمة ملفات التورنت - فيسبوك