انقر هنا لمشاهدة النسخة الكاملة للصفحة

تورنت - Housefull 3 2016 Hindi 720p DvDRip - Subbed Arabic

افلام هنديه الحجم : 952.42 MB التراكر: داخلي المتصلين : 0,0  اكتمل ( 74 ) 31/08/2016 تحميل التورنت

 1 arabp2p.com

Housefull 3 2016 Hindi 720p DvDRip - Subbed Arabic

(الترجمة VOBSUB مدمجة مع الفيلم)

 2 arabp2p.com

 3 arabp2p.com

ﻓﻴﻠﻢ الهند 145 دقيقة ﺗﻢ ﻋﺮﺿﻪ
تاريخ العرض: 3 يونيو 2016
تصنيف العمل: ﻛﻮﻣﻴﺪﻱ
ﺇﺧﺮاﺝ: فارهاد (مخرج)  ساجد (مخرج)
ﺗﺄﻟﻴﻒ: فارهاد (سيناريو)  ساجد (سيناريو)
طاقم العمل: جاكلين فرنانديز  أبهيشيك باتشان  رايتيش ديشموخ  أكشاي كومار


 4 arabp2p.com



 5 arabp2p.com

تدور أحداث هذا الجزء حول أب لا يرغب في تزويج بناته الثلاثة، لكن اﻷمر لا يستمر طويلًا، حيث يظهر ثلاث رجال يقعن في حب البنات الثلاثة، لكن عليهم أن يحاولوا اقناع اﻷب بأنهم صالحون كأزواج لبناته.

 6 arabp2p.com


Code
Complete name               : Housefull 3 2016 Hindi 720p DvDRip - Subbed Arabic.mkv
Format                      : Matroska
Format version              : Version 4 / Version 2
File size                   : 952 MiB
Duration                    : 2h 14mn
Overall bit rate            : 991 Kbps
Encoded date                : UTC 2016-08-31 14:30:02
Writing application         : mkvmerge v8.1.0 ('Psychedelic Postcard') 32bit
Writing library             : libebml v1.3.1 + libmatroska v1.4.2

Video
ID                          : 1
Format                      : AVC
Format/Info                 : Advanced Video Codec
Format profile              : High@L4
Format settings, CABAC      : Yes
Format settings, ReFrames   : 5 frames
Codec ID                    : V_MPEG4/ISO/AVC
Duration                    : 2h 14mn
Bit rate                    : 898 Kbps
Width                       : 1 280 pixels
Height                      : 544 pixels
Display aspect ratio        : 2.35:1
Frame rate mode             : Constant
Frame rate                  : 23.976 (24000/1001) fps
Color space                 : YUV
Chroma subsampling          : 4:2:0
Bit depth                   : 8 bits
Scan type                   : Progressive
Bits/(Pixel*Frame)          : 0.054
Stream size                 : 863 MiB (91%)
Writing library             : x264 core 148 r2692 64f4e24
Encoding settings           : cabac=1 / ref=5 / deblock=1:-1:-1 / *censored*yse=0x3:0x113 / me=umh / subme=7 / psy=1 / psy_rd=1.00:0.00 / mixed_ref=1 / me_range=16 / chroma_me=1 / trellis=2 / 8x8dct=1 / cqm=0 / deadzone=21,11 / fast_pskip=1 / chroma_qp_offset=-2 / threads=48 / lookahead_threads=4 / sliced_threads=0 / nr=0 / decimate=1 / interlaced=0 / bluray_compat=0 / constrained_intra=0 / bframes=3 / b_pyramid=0 / b_adapt=1 / b_bias=0 / direct=3 / weightb=1 / open_gop=0 / weightp=2 / keyint=240 / keyint_min=23 / scenecut=40 / intra_refresh=0 / rc_lookahead=40 / rc=2pass / mbtree=1 / bitrate=898 / ratetol=1.0 / qcomp=0.60 / qpmin=0 / qpmax=69 / qpstep=4 / cplxblur=20.0 / qblur=0.5 / vbv_maxrate=20000 / vbv_bufsize=25000 / nal_hrd=none / filler=0 / ip_ratio=1.40 / aq=1:1.00
Default                     : Yes
Forced                      : No

Audio
ID                          : 2
Format                      : AAC
Format/Info                 : Advanced Audio Codec
Format profile              : LC
Codec ID                    : A_AAC
Duration                    : 2h 14mn
Bit rate                    : 90.0 Kbps
Channel(s)                  : 2 channels
Channel positions           : Front: L R
Sampling rate               : 48.0 KHz
Frame rate                  : 46.875 fps (1024 spf)
Compression mode            : Lossy
Stream size                 : 86.5 MiB (9%)
Language                    : Hindi
Default                     : Yes
Forced                      : No

Text
ID                          : 3
Format                      : VobSub
Muxing mode                 : zlib
Codec ID                    : S_VOBSUB
Codec ID/Info               : Picture based subtitle format used on DVDs
Duration                    : 2h 10mn
Bit rate                    : 905 bps
Count of elements           : 2047
Stream size                 : 864 KiB (0%)
Language                    : Arabic
Default                     : Yes
Forced                      : No



 7 arabp2p.com

 8 arabp2p.com

 9 arabp2p.com

 10 arabp2p.com

 11 arabp2p.com

 12 arabp2p.com



 13 arabp2p.com


الملفات ذات العلاقة بـ ( Housefull 3 2016 Hindi 720p DvDRip - Subbed Arabic )
Jab.Harry.Met.Sejal.2017.720p WEB-DL-Subbed Arabic 8 0 1.05 GB
Commando 2 2017 Hindi 720p DvDRip x264 AC3 5.1 3 0 3.00 GB
TE3N 2016 مترجم 720p DvDRip اثارة وغموض اميتاب بتشان وفيديا بالن 2 0 1.78 GB
MARY KOM 2014 Hindi - 720p BluRay 1 0 1.00 GB
Kaabil.2017.Hindi.720p.HDRip.x264.AC3 1 0 3.00 GB
moutaro88million thanx
nemr23الف شكر يا غالى على الفيلم الجديد والترجمة

الرئيسية - قائمة ملفات التورنت - فيسبوك