انقر هنا لمشاهدة النسخة الكاملة للصفحة

[تورنت] - [عبده موتة][2012][Web-DL]

افلام عربيه الحجم : 4.91 GB التراكر: داخلي المتصلين : 0,18  اكتمل ( 48 ) 13/01/2020 تحميل التورنت


عبده موتة
اخراج: محمد عسقلانى
تمثيل: محمد رمضان,حورية فرغلي,دينا,رحاب الجمل,مجدي بدر,صبري عبدالمنعم


 1 arabp2p.com
 الفيلم المصري عبده موتة( 2012 )
نسخة غير معدلة قمت بسحبها من موقع netflix
اخراج: محمد عسقلانى
تمثيل:  محمد رمضان , حورية فرغلي , دينا , رحاب الجمل , مجدي بدر , صبري عبدالمنعم
عبده (محمد رمضان) بلطجي يعمل في تجارة المخدرات بعد أن يفقد والديه، يتخذ من قوته سلاح لفرض الإتاوات على أهالي الحي، في الوقت الذي تتطلع فيه بنت الحارة أنغام (حورية فرغلي) للزواج منه، وعلى الجهة الأخرى تقع الراقصة ربعية (دينا) في علاقة غير شرعية معه، وهكذا ابنة خالته عالية (رحاب الجمل).

 2 arabp2p.com

 3 arabp2p.com
((معلومات الاصدار))

Code
Format                      : MPEG-4
Format profile              : Base Media
Codec ID                    : isom (isom/iso2/avc1/mp41)
File size                   : 4.91 GiB
Duration                    : 1 h 39 min
Overall bit rate            : 7 054 kb/s
Writing application         : FlixGrab Plus

Video
ID                          : 1
Format                      : AVC
Format/Info                 : Advanced Video Codec
Format profile              : High@L4
Format settings             : CABAC / 3 Ref Frames
Format settings, CABAC      : Yes
Format settings, ReFrames   : 3 frames
Codec ID                    : avc1
Codec ID/Info               : Advanced Video Coding
Duration                    : 1 h 39 min
Bit rate                    : 6 919 kb/s
Width                       : 1 920 pixels
Height                      : 1 080 pixels
Display aspect ratio        : 16:9
Frame rate mode             : Constant
Frame rate                  : 25.000 FPS
Color space                 : YUV
Chroma subsampling          : 4:2:0
Bit depth                   : 8 bits
Scan type                   : Progressive
Bits/(Pixel*Frame)          : 0.133
Stream size                 : 4.82 GiB (98%)
Codec configuration box     : avcC

Audio
ID                          : 2
Format                      : E-AC-3
Format/Info                 : Enhanced AC-3
Commercial name             : Dolby Digital Plus
Codec ID                    : ec-3
Duration                    : 1 h 39 min
Bit rate mode               : Constant
Bit rate                    : 128 kb/s
Channel(s)                  : 2 channels
Channel layout              : L R
Sampling rate               : 48.0 kHz
Frame rate                  : 31.250 FPS (1536 SPF)
Bit depth                   : 16 bits
Compression mode            : Lossy
Stream size                 : 91.2 MiB (2%)
Language                    : Arabic
Service kind                : Complete Main
Default                     : Yes
Alternate group             : 1



 4 arabp2p.com
((البوستر))
 5 arabp2p.com

 6 arabp2p.com
((الممثلون))
 7 arabp2p.com

 8 arabp2p.com
((لقطات من المحتوى))
 9 arabp2p.com
 10 arabp2p.com
 11 arabp2p.com
 12 arabp2p.com
 13 arabp2p.com
 14 arabp2p.com

 15 arabp2p.com
((مشاهدة ممتعه))

الملفات ذات العلاقة بـ ( عبده موتة )
[عبده موتة][2012][Web-DL] 4 0 3.06 GB
[عمر وسلمى 3][2012][Web-DL] 19 0 5.48 GB
[حصل خير][2012][Web-DL] 17 0 7.39 GB
[الأنسة مامي][2012][Web-DL] 14 0 4.58 GB
[ساعة ونص][2012][Web-DL] 14 1 5.65 GB

الرئيسية - قائمة ملفات التورنت - فيسبوك