انقر هنا لمشاهدة النسخة الكاملة للصفحة

تورنت - Kasme vaade 1978.DVDRip.with.Arabic sub

افلام هنديه الحجم : 1.45 GB التراكر: داخلي المتصلين : 0,0  اكتمل ( 18 ) 21/06/2016 تحميل التورنت

 1 arabp2p.com
فيلم الأكشن والدراما  
Kasme vaade 1978
 2 arabp2p.com
 3 arabp2p.com
 4 arabp2p.com
 5 arabp2p.com
 6 arabp2p.com
 7 arabp2p.com
 8 arabp2p.com
 9 arabp2p.com
 10 arabp2p.com
ترجمة
سعد فوزى عبد العال
 11 arabp2p.com
http://www.imdb.com/title/tt0077792/
 12 arabp2p.com
General
Format                      : AVI
Format/Info                 : Audio Video Interleave
File size                   : 1.45 GiB
Duration                    : 2h 33mn
Overall bit rate            : 1 348 Kbps

Video
ID                          : 0
Format                      : MPEG-4 Visual
Format profile              : Advanced Simple@L5
Format settings, BVOP       : 1
Format settings, QPel       : No
Format settings, GMC        : No warppoints
Format settings, Matrix     : Default (MPEG)
Codec ID                    : XVID
Codec ID/Hint               : XviD
Duration                    : 2h 33mn
Bit rate                    : 1 211 Kbps
Width                       : 640 pixels
Height                      : 480 pixels
Display aspect ratio        : 4:3
Frame rate                  : 23.976 (24000/1001) fps
Color space                 : YUV
Chroma subsampling          : 4:2:0
Bit depth                   : 8 bits
Scan type                   : Progressive
Compression mode            : Lossy
Bits/(Pixel*Frame)          : 0.164
Stream size                 : 1.30 GiB (90%)
Writing library             : XviD 1.2.0.dev47 (UTC 2006-11-01)

Audio
ID                          : 1
Format                      : MPEG Audio
Format version              : Version 1
Format profile              : Layer 3
Mode                        : Joint stereo
Mode extension              : MS Stereo
Codec ID                    : 55
Codec ID/Hint               : MP3
Duration                    : 2h 33mn
Bit rate mode               : Constant
Bit rate                    : 128 Kbps
Channel(s)                  : 2 channels
Sampling rate               : 48.0 KHz
Compression mode            : Lossy
Stream size                 : 141 MiB (9%)
Alignment                   : Aligned on interleaves
Interleave, duration        : 42 ms (1.00 video frame)
Interleave, preload duratio : 504 ms
Writing library             : LAME3.98r


 13 arabp2p.com

الملفات ذات العلاقة بـ ( Kasme vaade 1978.DVDRip.with.Arabic sub )
Trishul 1978 مترجم DvDRip.XviD أميتاب وسانجيف كومار 2 1 1.27 GB
Sardaar Gabbar Singh 2016.720p.X265-Subbed Arabic 1 0 800.77 MB
Aankhen (1993) TV.Rip B4U.Aflam.Arabic.Hard.Sub.By.Mr.MAGDY 1 1 1.40 GB
Jab.Harry.Met.Sejal.2017.720p WEB-DL-Subbed Arabic 20 0 1.05 GB
Koyla.1997.DVDRip 1 0 3.00 GB
zin123حلو , شكراً لاعادة الرفع وجاري الدعم .
RAMBO23 لماذا تم حذف النسخة السابقة؟؟ حذف الموضوع فقط أخى لأجل تحديث ملف التورنت لوجود خطأ به
لهيبلماذا تم حذف النسخة السابقة؟؟

الرئيسية - قائمة ملفات التورنت - فيسبوك