انقر هنا لمشاهدة النسخة الكاملة للصفحة

تورنت - Phantom Detective.2016.720p.HDRip-Subbed Arabic

افلام آسيوية الحجم : 2.50 GB التراكر: داخلي المتصلين : 0,1  اكتمل ( 50 ) 03/12/2016 تحميل التورنت

 1 arabp2p.com

Phantom Detective.2016.720p.HDRip-Subbed Arabic

مع الترجمة العربية

 2 arabp2p.com

 3 arabp2p.com

ﻓﻴﻠﻢ كوريا الشمالية 124 دقيقة ﺗﻢ ﻋﺮﺿﻪ
تاريخ العرض: 4 ماي 2016
تصنيف العمل: كوراث - تحقيق - حركة
ﺇﺧﺮاﺝ: جوو سونغ-هي (مخرج)
ﺗﺄﻟﻴﻒ: جوو سونغ-هي (سيناريو وحوار)
طاقم العمل: لي جي-هون   كيم سونغ-كيون   كو اه-را    روه جيونغ-اوي


 4 arabp2p.com



 5 arabp2p.com

هونغ غيل دونغ (لي جي هون) يُدير وكالة تحقيق غير قانونية مع الرئيسة هوانغ (غو آرا) ويُحاولان إسقاط الأشرار ووفقًا لرغبة والدها الراحل. هونغ غيل دونغ قادر على اقتفاء أثر أيّ شخص خلال ساعة واحدة أو أقل، باستثناء كيم بيونغ دوك الذي استعصى عليه الامساك به لسنوات عديدة. يحاول هونغ غيل دونغ الإمساك به و يتورط في قضية كبيرة.

 6 arabp2p.com


Code
Format                      : Matroska
Format version              : Version 4 / Version 2
File size                   : 2.50 GiB
Duration                    : 2 h 6 min
Overall bit rate            : 2 833 kb/s
Encoded date                : UTC 2016-12-03 08:26:39
Writing application         : mkvmerge v8.1.0 ('Psychedelic Postcard') 32bit
Writing library             : libebml v1.3.1 + libmatroska v1.4.2

Video
ID                          : 2
Format                      : AVC
Format/Info                 : Advanced Video Codec
Format profile              : Main@L3.1
Format settings, CABAC      : Yes
Format settings, ReFrames   : 2 frames
Format settings, GOP        : M=1, N=12
Codec ID                    : V_MPEG4/ISO/AVC
Duration                    : 2 h 6 min
Bit rate mode               : Constant
Bit rate                    : 2 515 kb/s
Width                       : 1 280 pixels
Height                      : 720 pixels
Display aspect ratio        : 16:9
Frame rate mode             : Constant
Frame rate                  : 30.000 FPS
Color space                 : YUV
Chroma subsampling          : 4:2:0
Bit depth                   : 8 bits
Scan type                   : Progressive
Bits/(Pixel*Frame)          : 0.091
Stream size                 : 2.21 GiB (89%)
Default                     : Yes
Forced                      : No

Audio
ID                          : 1
Format                      : AAC
Format/Info                 : Advanced Audio Codec
Format profile              : LC
Codec ID                    : A_AAC
Duration                    : 2 h 6 min
Bit rate                    : 320 kb/s
Channel(s)                  : 2 channels
Channel positions           : Front: L R
Sampling rate               : 44.1 kHz
Frame rate                  : 43.066 FPS (1024 spf)
Compression mode            : Lossy
Stream size                 : 289 MiB (11%)
Default                     : Yes
Forced                      : No

Text
ID                          : 3
Format                      : ASS
Codec ID                    : S_TEXT/ASS
Codec ID/Info               : Advanced Sub Station Alpha
Duration                    : 2 h 1 min
Bit rate                    : 0 b/s
Count of elements           : 2
Compression mode            : Lossless
Stream size                 : 444 Bytes (0%)
Default                     : Yes
Forced                      : No



 7 arabp2p.com

 8 arabp2p.com

 9 arabp2p.com

 10 arabp2p.com

 11 arabp2p.com

 12 arabp2p.com





 13 arabp2p.com


الملفات ذات العلاقة بـ ( Phantom Detective.2016.720p.HDRip-Subbed Arabic )
Under the Shadow 2016 PERSIAN 720p-Subbed Arabic 1 0 598.85 MB
Train to Busan 2016 Korean 720p -Subbed Arabic 3 0 848.52 MB
The Wailing (2016) LIMITED 720p BluRay x264-Subbed Arabic 1 0 748.03 MB
Detective Dee and the Mystery of the Phantom Flame 2010+ مع الترجمه فلم المنتظر الاكشن و الاثاره 63 13 1.37 GB
The.Detective.2.2011.BRRip.XviD.AC3-nLiBRA+الترجمة 3 4 1.46 GB
Hokagehttp://www.arabp2p.com/gifs/4.gif

الرئيسية - قائمة ملفات التورنت - فيسبوك