انقر هنا لمشاهدة النسخة الكاملة للصفحة

[تورنت] - [Al-Ahtal 1990 DVBRip][1990][TVRip]

افلام عربيه الحجم : 2.60 GB التراكر: داخلي المتصلين : 2,10  اكتمل ( 36 ) 12/10/2020 تحميل التورنت


Al-Ahtal 1990 DVBRip
اخراج: أحمد السبعاوي
تمثيل: حسين الشربيني بوسي سمير غانم حسني أباظة بدرية عبدالجواد سليمان عيد

 1 arabp2p.com


يسرنى أن أقدم لكم الفيلم العربي

الأهطل  1990


 2 arabp2p.com


معلومات عن الفيلم



 3 arabp2p.com
 4 arabp2p.com
 5 arabp2p.com
 6 arabp2p.com
 7 arabp2p.com
 8 arabp2p.com
 9 arabp2p.com
 10 arabp2p.com
 11 arabp2p.com
 12 arabp2p.com
 13 arabp2p.com


 14 arabp2p.com


Format                      : Matroska
Format version              : Version 4
File size                   : 2.60 GiB
Duration                    : 1 h 32 min
Overall bit rate mode       : Variable
Overall bit rate            : 4 031 kb/s
Encoded date                : UTC 2019-05-07 15:17:04
Writing application         : HD MATV Systems DVB-S2 Satellite
Writing library             : TeleDelta HDS2800

Video
ID                          : 1
Format                      : MPEG Video
Format version              : Version 2
Format profile              : Main@High 1440
Format settings, BVOP       : No
Format settings, Matrix     : Default
Format settings, GOP        : N=12
Codec ID                    : V_MPEG2
Codec ID/Info               : MPEG 1 or 2 Video
Duration                    : 1 h 32 min
Bit rate mode               : Variable
Bit rate                    : 3 758 kb/s
Width                       : 768 pixels
Height                      : 576 pixels
Display aspect ratio        : 1.399
Original display aspect rat : 4:3
Frame rate mode             : Constant
Frame rate                  : 29.970 (30000/1001) FPS
Color space                 : YUV
Chroma subsampling          : 4:2:0
Bit depth                   : 8 bits
Scan type                   : Progressive
Compression mode            : Lossy
Bits/(Pixel*Frame)          : 0.283
Time code of first frame    : 00:00:00:00
Time code source            : Group of pictures header
GOP, Open/Closed            : Closed
Stream size                 : 2.42 GiB (93%)
Default                     : Yes
Forced                      : No

Audio
ID                          : 2
Format                      : AC-3
Format/Info                 : Audio Coding 3
Commercial name             : Dolby Digital
Codec ID                    : A_AC3
Duration                    : 1 h 32 min
Bit rate mode               : Constant
Bit rate                    : 192 kb/s
Channel(s)                  : 2 channels
Channel layout              : L R
Sampling rate               : 44.1 kHz
Frame rate                  : 28.711 FPS (1536 SPF)
Compression mode            : Lossy
Stream size                 : 127 MiB (5%)
Language                    : Arabic
Service kind                : Complete Main
Default                     : Yes
Forced                      : No

Menu
00:00:00.000                : :The  FOOL 1990  / :CINEMA 2
00:10:00.000                : :Chapter 02
00:20:00.000                : :Chapter 03
00:30:00.000                : :Chapter 04
00:40:00.000                : :Chapter 05
00:50:00.000                : :Chapter 06
01:00:00.000                : :Chapter 07
01:10:00.000                : :Chapter 08
01:20:00.000                : :Chapter 09






 15 arabp2p.com







الملفات ذات العلاقة بـ ( Al-Ahtal 1990 DVBRip )
[Al-Folous Wal Wohoush 1988 DVBRip][1988][BRrip] 17 2 2.91 GB
[3isabet Hamda We Tuto 1982 DVBRip][1982][TVRip] 12 1 4.78 GB
[Alembratot 1990 720p][1990][HDTV] 10 1 3.48 GB
[أنا اللي قتلت الحنش][1984][HDTV] 26 1 3.10 GB
[حنفي الأبهة][1990][HDTV] 18 1 4.00 GB
Modyy2020بارك الله فيك

الرئيسية - قائمة ملفات التورنت - فيسبوك