انقر هنا لمشاهدة النسخة الكاملة للصفحة

تورنت - Grave of the Fireflies 1988 1080p BluRay DTS x264 - alrmothe

افلام الحجم : 5.47 GB التراكر: خارجي المتصلين : 8,12  اكتمل ( 12 ) 23/01/2013 تحميل التورنت

.

Movies : Animation : BluRay : Japanese


Grave of the Fireflies 1988 1080p BluRay DTS x264 - alrmothe

 1 arabp2p.com

 2 arabp2p.com



 3 arabp2p.com
IMDB:
http://www.imdb.com/title/tt0095327
Genre:Animation | Drama | War
Source:Blu-ray Disc
Language:Japanese
File size:5.46 GiB
Overall bit rate:8828 Kbps
Duration:1h 28mn
Encoded / Released By:alrmothe


القصة :عن فتى يبلغ من العمر 14 عاماً (سييتا ) يقوم برعاية أخته الصغرى ( سيتسكو 5 أعوام ) و الإهتمام بها بعد إنضمام أبيهما للجيش و وفاة أمهما متأثرة بحروقها الشديدة , و القصة مقتبسة عن قصة حقيقية حدثت في الحرب العالمية الثانية والجدير بالذكر بأن الفيلم للمخرج الياباني إيزاو تاكاهاتا الذي أخرج لنا ( عدنان و لينا و وداعاً ماركو و هايدي ) والفيلم ذو بعد انساني أكثر من أنه رسوم متحركة و الفيلم من إنتاج استديو جيبلي ( Studio Ghibli ) .

موقع الاستديو
http://www.onlineghibli.com/films.php

والفيلم يعتبر أحد أفضل 250 فيلم بتاريخ السينما برأي النقاد  و مخرجي الأفلام
 4 arabp2p.com


 5 arabp2p.com
cast
Tsutomu Tatsumi .. Seita (voice)
Ayano Shiraishi .. Setsuko (voice)
Yoshiko Shinohara .. Mother (voice)
Akemi Yamaguchi .. Aunt (voice)


 6 arabp2p.com
Video Information
Format: Matroska
Format: AVC
Format/Info : Advanced Video Codec
Format profile: High@L4.1
Format settings, CABAC: Yes
Format settings, ReFrames: 4 frames
Muxing mode: Header stripping
Codec ID: V_MPEG4/ISO/AVC
Bit rate: 7324 Kbps
Display aspect ratio: 1.85:1
Frame rate mode: Constant
Frame rate: 23.976 fps
Color space: YUV
Chroma subsampling: 4:2:0
Bit depth: 8 bits
Scan type: Progressive
Bits/(Pixel*Frame): 0.153
Stream size: 4.42 GiB(81%)
Resolution:1920x1040


Audio Information:

Format: DTS
Format/Info : Digital Theater Systems
Mode: 16
Format settings, Endianness: Big
Muxing mode : Header stripping
Codec ID: A_DTS
Bit rate mode: Constant
Bit rate : 1 509 Kbps
Channel(s): 2 channels
Channel positions: Front: L C R, Side: L R, LFE
Sampling rate : 48.0 KHz
Bit depth: 24 bits
Compression mode: Lossy
Stream size: 956 GiB (17%)
Language:Japanese


SUB:English,Arabic,swedish ,indonesian

كل الترجمات موجوده في ملف اسمه sub
 7 arabp2p.com

المصدر : قرص البلوراي الحجم قبل الضغط 70 جيجا وبعد الضغط أصبح الحجم 5.46 جيجا

وحجم الصوت قبل الضغط 4 جيجا و صيغته كانت FLAC وبعد الضغط أصبح 956 ميجا وتم ضغط الصوت إلى صيغة  DTS

Screenshots
 8 arabp2p.com
 9 arabp2p.com
 10 arabp2p.com
 11 arabp2p.com
 12 arabp2p.com
 13 arabp2p.com
 14 arabp2p.com




Code

http://fr33dom.h33t.com:3310/announce
http://121.14.98.151:9090/announce
http://tracker.ex.ua/announce
http://tracker.torrentbay.to:6969/announce
http://exodus.desync.com:6969/announce
http://94.228.192.98/announce
http://tracker.coppersurfer.tk:6969/announce
udp://tracker.istole.it:80/announce
udp://fr33dom.h33t.com:3310/announce








Trailer












.

الملفات ذات العلاقة بـ ( Grave of the Fireflies 1988 1080p BluRay DTS x264 - alrmothe )
Despicable Me 2 2013 1080p Bluray x264 9Audio - alrmothe 107 275 17.61 GB
The Book Of Life 2014 1080p BluRay x264 4Audio-alrmothe 3 0 14.61 GB
Princess Mononoke 1997 1080p BluRay x264 11Audio - alrmothe 2 2 19.63 GB
Tangled 2010 BluRay 1080p DTS x264 CHD 29 10 7.01 GB
Tangled 2010 1080p BluRay DTS x264 ESiR 5 6 6.55 GB
amerashkaبحثت عن النسخة اليابانية لهذا الفيلم طويلاً...شكراً لك عزيزي
مشكور اخوي الغالي

الرئيسية - قائمة ملفات التورنت - فيسبوك