انقر هنا لمشاهدة النسخة الكاملة للصفحة

[تورنت] - [الخلية][2017][Web-DL]

افلام عربيه الحجم : 2.72 GB التراكر: داخلي المتصلين : 0,2  اكتمل ( 77 ) 29/12/2019 تحميل التورنت


الخلية
اخراج: طارق العريان
تمثيل: أحمد عز,محمد ممدوح,سامر المصري,أمينة خليل,أحمد صفوت,أحمد صلاح حسني

 1 arabp2p.com
 الفيلم المصري الخلية ( 2017 )
نسخة خام غير معدلة قمت بسحبها من موقع netflix
اخراج: طارق العريان
تمثيل:  أحمد عز , محمد ممدوح , سامر المصري , أمينة خليل , أحمد صفوت , أحمد صلاح حسني
(سيف) ضابط عمليات خاصة، يتصدي لإرهابي اسمه (مروان)، وأثناء هذه العملية يستشهد ضابط العمليات الخاصة (عمرو)، ويصاب (سيف) نتيجة إنفجار قنبلة بجانبه، فيقسم (سيف) أن يعود ليثأر لحق (عمرو)، وعلى جانب أخر يعمل الضابط (صابر) على نفس ملف هذا الإرهابي، فيذهب (سيف) إليه لكي يطلب منه مساعدته.

 2 arabp2p.com

 3 arabp2p.com
((معلومات الاصدار))

Code
Format                      : MPEG-4
Format profile              : Base Media
Codec ID                    : isom (isom/iso2/avc1/mp41)
File size                   : 2.71 GiB
Duration                    : 2 h 6 min
Overall bit rate            : 3 072 kb/s
Writing application         : FlixGrab Plus

Video
ID                          : 1
Format                      : AVC
Format/Info                 : Advanced Video Codec
Format profile              : High@L4
Format settings             : CABAC / 3 Ref Frames
Format settings, CABAC      : Yes
Format settings, ReFrames   : 3 frames
Codec ID                    : avc1
Codec ID/Info               : Advanced Video Coding
Duration                    : 2 h 6 min
Bit rate                    : 2 939 kb/s
Width                       : 1 920 pixels
Height                      : 1 080 pixels
Display aspect ratio        : 16:9
Frame rate mode             : Constant
Frame rate                  : 25.000 FPS
Color space                 : YUV
Chroma subsampling          : 4:2:0
Bit depth                   : 8 bits
Scan type                   : Progressive
Bits/(Pixel*Frame)          : 0.057
Stream size                 : 2.59 GiB (96%)
Codec configuration box     : avcC

Audio
ID                          : 2
Format                      : E-AC-3
Format/Info                 : Enhanced Audio Coding 3
Codec ID                    : ec-3
Duration                    : 2 h 6 min
Bit rate mode               : Constant
Bit rate                    : 128 kb/s
Channel(s)                  : 2 channels
Channel positions           : Front: L R
Sampling rate               : 48.0 kHz
Frame rate                  : 187.500 FPS (256 SPF)
Bit depth                   : 16 bits
Compression mode            : Lossy
Stream size                 : 116 MiB (4%)
Language                    : Arabic
Service kind                : Complete Main
Default                     : Yes
Alternate group             : 1



 4 arabp2p.com
((البوستر))
 5 arabp2p.com

 6 arabp2p.com
((الممثلون))
 7 arabp2p.com

 8 arabp2p.com
((لقطات من المحتوى))
 9 arabp2p.com
 10 arabp2p.com
 11 arabp2p.com
 12 arabp2p.com
 13 arabp2p.com
 14 arabp2p.com
 15 arabp2p.com
 16 arabp2p.com
 17 arabp2p.com
 18 arabp2p.com

 19 arabp2p.com
((مشاهدة ممتعه))

الملفات ذات العلاقة بـ ( الخلية )
[الخلية][2017][Web-DL] 4 1 1.74 GB
[الخلية][2017][HDTV] 3 0 3.17 GB
[الخلية][2017][Web-DL] 3 1 2.45 GB
[ولاد رزق 2 : عودة أسود الأرض][2019][HDTV] 40 0 3.19 GB
[ولاد رزق 2][2019][HDTV] 10 0 1.89 GB
alkhooryتسلم
Maldinyشكرا يا ورد

الرئيسية - قائمة ملفات التورنت - فيسبوك