انقر هنا لمشاهدة النسخة الكاملة للصفحة

تورنت - WAR (2019) 720p BluRay مترجم هريتك روشان وتايجر شاروف

افلام هنديه الحجم : 3.85 GB التراكر: داخلي المتصلين : 0,6  اكتمل ( 94 ) 12/12/2019 تحميل التورنت

 1 arabp2p.com






فيلم الأكشن والأثارة الأنجح

WAR (2019)

بطولة
هريتك روشان
تايجر شاروف
فانى كابور

ألف شكر للمترجمان
د حيدر المدنى & أستاذ بشار

نسخة hd 720p مترجمة بمساحة 3.84 جيجا




 2 arabp2p.com

 3 arabp2p.com

 4 arabp2p.com
General
WAR (2019) 720p BluRay x264,by.nemr23.mp4
Format                      : MPEG-4
Format profile              : Base Media
Codec ID                    : isom (isom/iso2/avc1/mp41)
File size                   : 3.85 GiB
Duration                    : 2 h 32 min
Overall bit rate mode       : Variable
Overall bit rate            : 3 600 kb/s
Encoded date                : UTC 1970-01-01 00:00:00
Tagged date                 : UTC 1970-01-01 00:00:00
Writing application         : Lavf52.84.0

Video
ID                          : 1
Format                      : AVC
Format/Info                 : Advanced Video Codec
Format profile              : High@L5
Format settings             : CABAC / 5 Ref Frames
Format settings, CABAC      : Yes
Format settings, ReFrames   : 5 frames
Format settings, GOP        : M=4, N=13
Codec ID                    : avc1
Codec ID/Info               : Advanced Video Coding
Duration                    : 2 h 32 min
Bit rate                    : 3 453 kb/s
Width                       : 1 920 pixels
Height                      : 1 080 pixels
Display aspect ratio        : 16:9
Frame rate mode             : Constant
Frame rate                  : 24.000 FPS
Color space                 : YUV
Chroma subsampling          : 4:2:0
Bit depth                   : 8 bits
Scan type                   : Progressive
Bits/(Pixel*Frame)          : 0.069
Stream size                 : 3.66 GiB (95%)
Writing library             : x264 core 110
Encoding settings           : cabac=1 / ref=5 / deblock=1:0:0 / *censored*yse=0x3:0x133 / me=hex / subme=8 / psy=1 / psy_rd=1.00:0.00 / mixed_ref=1 / me_range=16 / chroma_me=0 / trellis=1 / 8x8dct=1 / cqm=0 / deadzone=21,11 / fast_pskip=1 / chroma_qp_offset=-2 / threads=8 / sliced_threads=0 / nr=0 / decimate=1 / interlaced=0 / constrained_intra=0 / bframes=3 / b_pyramid=0 / b_adapt=0 / b_bias=0 / direct=3 / weightb=1 / open_gop=0 / weightp=0 / keyint=13 / keyint_min=7 / scenecut=0 / intra_refresh=0 / rc_lookahead=13 / rc=abr / mbtree=1 / bitrate=3453 / ratetol=1.0 / qcomp=0.00 / qpmin=10 / qpmax=51 / qpstep=4 / ip_ratio=1.41 / aq=1:1.00
Encoded date                : UTC 1970-01-01 00:00:00
Tagged date                 : UTC 1970-01-01 00:00:00
Codec configuration box     : avcC

Audio
ID                          : 2
Format                      : AAC
Format/Info                 : Advanced Audio Codec
Format profile              : LC
Codec ID                    : mp4a-40-2
Duration                    : 2 h 32 min
Bit rate mode               : Variable
Bit rate                    : 165 kb/s
Channel(s)                  : 2 channels
Channel positions           : Front: L R
Sampling rate               : 48.0 kHz
Frame rate                  : 46.875 FPS (1024 SPF)
Compression mode            : Lossy
Stream size                 : 181 MiB (5%)
Encoded date                : UTC 1970-01-01 00:00:00
Tagged date                 : UTC 1970-01-01 00:00:00


 5 arabp2p.com

 6 arabp2p.com

 7 arabp2p.com

 8 arabp2p.com

 9 arabp2p.com

 10 arabp2p.com

 11 arabp2p.com

 12 arabp2p.com

 13 arabp2p.com

الملفات ذات العلاقة بـ ( WAR (2019) 720p BluRay مترجم هريتك روشان وتايجر شاروف )
Sarkar 3 2017 مترجم 720p DvDRip جريمة سياسى أميتاب وجاكى شاروف 1 0 2.61 GB
الفيلم الهندي 90 مل [مترجم] 90 ml (2019) Translated into Arabic (2019) 1080p 3 0 5.84 GB
Saand Ki Aankh 2019 مترجم 1080p WEB 5 0 3.76 GB
Deewaar 1975 مترجم Bluray.720p درامى أكشن اميتاب وشاشى كابور 2 0 4.30 GB
Dream Girl 2019 مترجم 1080p WEB-Rip كوميدى 6 0 4.13 GB
nemr23 شكراً لك يعطيك الف عافيه على ما قدمت شكل الفيلم ممتاز جاري التحميل وفي انتظار جديدك :) تسلم اخى الغالى نورت الموضوع
bacem-lara مشكور اخي محمد على سرعة الرد على استفساراتنا بخصوص النسخة ال 1080 مافي داعي لاعادة رفعها لانها ما راح تفرق الا بزيادة الحجم لذلك خلينا على هذه النسخة الجميلة وربي يعطيك العافية والصحة
S-G-Rشكراً لك يعطيك الف عافيه على ما قدمت شكل الفيلم ممتاز جاري التحميل وفي انتظار جديدك :)
nemr23 الف شكر اخي محمد على الفيلم المنتظر لكن عندي سؤال لو تكرمت بالاجابة عليه انت كاتب نسخة الفيلم 720 والمواصفات والصور مكتوب عليها 1080 ممكن أعرف أيهما الأصح وجزاك الله كل خير سلفا" أخي محمد اهلا بيك اخى الغالى نورت الموضوع بخصوص استفسارك النسخة اصلا 720p لكن بعد دمج الترجمة قمت بأعادة التكويد 1080p حفاظا على الجودة أذا أنت تفضل أرفعلك النسخة ال 1080p حاضر لكن الترجمة منفصلة لأن مساحتها 4.60 جيجا وأذا دمجت الترجمة هاتوصل ل6 جيجا
bacem-lara الف شكر اخي محمد على الفيلم المنتظر لكن عندي سؤال لو تكرمت بالاجابة عليه انت كاتب نسخة الفيلم 720 والمواصفات والصور مكتوب عليها 1080 ممكن أعرف أيهما الأصح وجزاك الله كل خير سلفا" أخي محمد

الرئيسية - قائمة ملفات التورنت - فيسبوك