انقر هنا لمشاهدة النسخة الكاملة للصفحة

تورنت - Bade Miya Chote Miya 1998 مترجم mkv 1080p أكشن كوميدى لأميتاب وجوفندا

افلام هنديه الحجم : 4.43 GB التراكر: داخلي المتصلين : 0,2  اكتمل ( 35 ) 21/11/2019 تحميل التورنت

 1 arabp2p.com





فيلم الأكشن الكوميدى

Bade Miya Chote Miya 1998

بطولة
الأسطورة أميتاب
جوفندا
رافينا تاندون
أنوبام خير

كل الشكر لمترجمى بوليود العربية

نسخة مترجمة mkv 1080p بمساحة 4.42 جيجا



 2 arabp2p.com

 3 arabp2p.com

 4 arabp2p.com
General
Bade Miya Chote Miya 1998.by.nemr23.mkv
Format                      : Matroska
Format version              : Version 4 / Version 2
File size                   : 4.43 GiB
Duration                    : 2 h 15 min
Overall bit rate            : 4 675 kb/s
Writing application         : Lavf56.15.100
Writing library             : Lavf56.15.100

Video
ID                          : 1
Format                      : AVC
Format/Info                 : Advanced Video Codec
Format profile              : Baseline@L3
Format settings             : 1 Ref Frames
Format settings, CABAC      : No
Format settings, ReFrames   : 1 frame
Codec ID                    : V_MPEG4/ISO/AVC
Duration                    : 2 h 15 min
Bit rate                    : 4 262 kb/s
Width                       : 1 920 pixels
Height                      : 1 080 pixels
Display aspect ratio        : 16:9
Frame rate mode             : Constant
Frame rate                  : 25.000 FPS
Color space                 : YUV
Chroma subsampling          : 4:2:0
Bit depth                   : 8 bits
Scan type                   : Progressive
Bits/(Pixel*Frame)          : 0.082
Stream size                 : 4.04 GiB (91%)
Writing library             : x264 core 142 r2479 dd79a61
Encoding settings           : cabac=0 / ref=1 / deblock=1:0:0 / *censored*yse=0x1:0x111 / me=hex / subme=2 / psy=1 / psy_rd=1.00:0.00 / mixed_ref=0 / me_range=16 / chroma_me=1 / trellis=0 / 8x8dct=0 / cqm=0 / deadzone=21,11 / fast_pskip=1 / chroma_qp_offset=0 / threads=8 / lookahead_threads=2 / sliced_threads=0 / nr=0 / decimate=1 / interlaced=0 / bluray_compat=0 / constrained_intra=0 / bframes=0 / weightp=0 / keyint=250 / keyint_min=25 / scenecut=40 / intra_refresh=0 / rc_lookahead=10 / rc=crf / mbtree=1 / crf=23.0 / qcomp=0.60 / qpmin=0 / qpmax=69 / qpstep=4 / ip_ratio=1.40 / aq=1:1.00
Default                     : Yes
Forced                      : No

Audio
ID                          : 2
Format                      : AC-3
Format/Info                 : Audio Coding 3
Codec ID                    : A_AC3
Duration                    : 2 h 15 min
Bit rate mode               : Constant
Bit rate                    : 320 kb/s
Channel(s)                  : 2 channels
Channel positions           : Front: L R
Sampling rate               : 44.1 kHz
Frame rate                  : 28.711 FPS (1536 SPF)
Bit depth                   : 16 bits
Compression mode            : Lossy
Delay relative to video     : 76 ms
Stream size                 : 310 MiB (7%)
Service kind                : Complete Main
Default                     : Yes
Forced                      : No


 5 arabp2p.com

 6 arabp2p.com

 7 arabp2p.com

 8 arabp2p.com

 9 arabp2p.com

 10 arabp2p.com

 11 arabp2p.com

 12 arabp2p.com

الملفات ذات العلاقة بـ ( Bade Miya Chote Miya 1998 مترجم mkv 1080p أكشن كوميدى لأميتاب وجوفندا )
NASEEB 1981 مترجم hd أكشن لأميتاب وريشى كابور 8 0 5.03 GB
Ram Balram 1980 مترجم DvDRip أكشن لأميتاب ودارمندرا 6 0 2.11 GB
Kaalia 1981 hd مترجم أكشن وجريمة. لأميتاب وأمجد خان 5 0 4.20 GB
Zameer 1975 مترجم mp4 أكشن لأميتاب وشامى كابور 4 0 2.42 GB
Major Saab 1998 مترجم 720p DvDRip أكشن رومانسى أميتاب وأجاى ديفجان 1 0 3.02 GB
nemr23 تسلم ايدك , وميرسي على الاضافة . ربنا يخليك اخى الغالى دائما يسعدنى مرورك نورت الموضوع
zin123تسلم ايدك , وميرسي على الاضافة .

الرئيسية - قائمة ملفات التورنت - فيسبوك