انقر هنا لمشاهدة النسخة الكاملة للصفحة

تورنت - Open Season Quadrilogy 1080p BluRay x264 DTS LameyHost رباعية موسم الصيد المفتوح مدبلج للعربية

افلام الحجم : 21.22 GB التراكر: داخلي المتصلين : 1,4  اكتمل ( 45 ) 16/11/2019 تحميل التورنت

بسم الله الرحمن الرحيم

يسعدني تقديم رباعية موسم الصيد المفتوح بلوري

Open Season Quadrilogy

 1 arabp2p.com

مدبلج للعربية الفصحى

كل فيلم يحتوي كل من الصوت العربي والإنجليزي

و التالي اسكرينات توضح كواليتي الأفلام

 2 arabp2p.com
 3 arabp2p.com
 4 arabp2p.com
 5 arabp2p.com
 6 arabp2p.com


frendator :
ماذا عن جودة الصوت



OPEN SEASON 1



Code
Audio #1
ID                          : 2
Format                      : DTS
Format/Info                 : Digital Theater Systems
Codec ID                    : A_DTS
Duration                    : 1 h 26 min
Bit rate mode               : Constant
Bit rate                    : 1 510 kb/s
Channel(s)                  : 6 channels
Channel positions           : Front: L C R, Side: L R, LFE
Sampling rate               : 48.0 kHz
Frame rate                  : 93.750 FPS (512 SPF)
Bit depth                   : 16 bits
Compression mode            : Lossy
Stream size                 : 931 MiB (13%)
Language                    : English
Default                     : No
Forced                      : No

Audio #2
ID                          : 3
Format                      : AC-3
Format/Info                 : Audio Coding 3
Codec ID                    : A_AC3
Duration                    : 1 h 26 min
Bit rate mode               : Constant
Bit rate                    : 448 kb/s
Channel(s)                  : 6 channels
Channel positions           : Front: L C R, Side: L R, LFE
Sampling rate               : 48.0 kHz
Frame rate                  : 31.250 FPS (1536 SPF)
Bit depth                   : 16 bits
Compression mode            : Lossy
Stream size                 : 276 MiB (4%)
Language                    : Arabic
Service kind                : Complete Main
Default                     : Yes
Forced                      : No



OPEN SEASON 2


Code
Audio #1
ID                          : 2
Format                      : DTS
Format/Info                 : Digital Theater Systems
Codec ID                    : A_DTS
Duration                    : 1 h 16 min
Bit rate mode               : Constant
Bit rate                    : 1 510 kb/s
Channel(s)                  : 6 channels
Channel positions           : Front: L C R, Side: L R, LFE
Sampling rate               : 48.0 kHz
Frame rate                  : 93.750 FPS (512 SPF)
Bit depth                   : 16 bits
Compression mode            : Lossy
Stream size                 : 825 MiB (17%)
Language                    : English
Default                     : No
Forced                      : No

Audio #2
ID                          : 3
Format                      : AC-3
Format/Info                 : Audio Coding 3
Codec ID                    : A_AC3
Duration                    : 1 h 14 min
Bit rate mode               : Constant
Bit rate                    : 512 kb/s
Channel(s)                  : 2 channels
Channel positions           : Front: L R
Sampling rate               : 48.0 kHz
Frame rate                  : 31.250 FPS (1536 SPF)
Bit depth                   : 16 bits
Compression mode            : Lossy
Stream size                 : 272 MiB (6%)
Language                    : Arabic
Service kind                : Complete Main
Default                     : Yes
Forced                      : No


OPEN SEASON 3



Code
Audio #1
ID                          : 2
Format                      : DTS
Format/Info                 : Digital Theater Systems
Codec ID                    : A_DTS
Duration                    : 1 h 14 min
Bit rate mode               : Constant
Bit rate                    : 1 509 kb/s
Channel(s)                  : 6 channels
Channel positions           : Front: L C R, Side: L R, LFE
Sampling rate               : 48.0 kHz
Frame rate                  : 93.750 FPS (512 SPF)
Bit depth                   : 24 bits
Compression mode            : Lossy
Stream size                 : 805 MiB (16%)
Language                    : English
Default                     : No
Forced                      : No

Audio #2
ID                          : 3
Format                      : AC-3
Format/Info                 : Audio Coding 3
Codec ID                    : A_AC3
Duration                    : 1 h 14 min
Bit rate mode               : Constant
Bit rate                    : 192 kb/s
Channel(s)                  : 2 channels
Channel positions           : Front: L R
Sampling rate               : 44.1 kHz
Frame rate                  : 28.711 FPS (1536 SPF)
Bit depth                   : 16 bits
Compression mode            : Lossy
Stream size                 : 102 MiB (2%)
Language                    : Arabic
Service kind                : Complete Main
Default                     : Yes
Forced                      : No



OPEN SEASON SCARED SILLY



Code
Audio #1
ID                          : 2
Format                      : DTS
Format/Info                 : Digital Theater Systems
Codec ID                    : A_DTS
Duration                    : 1 h 24 min
Bit rate mode               : Constant
Bit rate                    : 1 509 kb/s
Channel(s)                  : 6 channels
Channel positions           : Front: L C R, Side: L R, LFE
Sampling rate               : 48.0 kHz
Frame rate                  : 93.750 FPS (512 SPF)
Bit depth                   : 24 bits
Compression mode            : Lossy
Stream size                 : 915 MiB (20%)
Language                    : English
Default                     : No
Forced                      : No

Audio #2
ID                          : 5
Format                      : AC-3
Format/Info                 : Audio Coding 3
Codec ID                    : A_AC3
Duration                    : 1 h 24 min
Bit rate mode               : Constant
Bit rate                    : 192 kb/s
Channel(s)                  : 2 channels
Channel positions           : Front: L R
Sampling rate               : 48.0 kHz
Frame rate                  : 31.250 FPS (1536 SPF)
Bit depth                   : 16 bits
Compression mode            : Lossy
Stream size                 : 116 MiB (3%)
Language                    : Arabic
Service kind                : Complete Main
Default                     : Yes
Forced                      : No




الملف مدعوم بسيد بوكس لفترة مشاهدة ممتعة.

الملفات ذات العلاقة بـ ( Open Season Quadrilogy 1080p BluRay x264 DTS LameyHost رباعية موسم الصيد المفتوح مدبلج للعربية )
Open Season 2 2008 1080p BluRay x264 DTS - Lameyhost مدبلج للعربية 7 0 4.65 GB
Open Season 2006 1080p BluRay x264 DTS - LameyHost مدبلج للعربية 7 0 6.98 GB
Open Season 3 2010 1080p BluRay x264 DTS - LameyHost مدبلج للعربية 7 0 5.08 GB
Open Season Scared Silly 2015 1080p BluRay x264 - LameyHost مدبلج للعربية 8 0 4.49 GB
Hotel Transylvania Quadrilogy 1080p BluRay REMUX AVC DTS-HD MA 5.1 LameyHost رباعية فندق ترانسلفانيا مدبلجة للغة العربية 4 2 53.87 GB
frendatorماذا عن جودة الصوت

الرئيسية - قائمة ملفات التورنت - فيسبوك