انقر هنا لمشاهدة النسخة الكاملة للصفحة

تورنت - Open Season Scared Silly 2015 1080p BluRay x264 - LameyHost مدبلج للعربية

افلام الحجم : 4.49 GB التراكر: داخلي المتصلين : 0,0  اكتمل ( 99 ) 13/10/2019 تحميل التورنت


السلام عليكم ورحمة الله وبركاته

مع الجزء الرابع من رباعية موسم الصيد

مدبلج بلوري

OPEN SEASON SCARED SILLY


 1 arabp2p.com

+ العمل مدعوم بسيد بوكس

معلومات عن الإصدارة


Code
Complete name               : D:lameyhost‎Open.Season.Quadrilogy.1080p.BluRay.x264.DTS-LameyHostOpen.Season.Scared.Silly.2015.1080p.BluRay.x264-LameyHostOpen.Season.Scared.Silly.2015.1080p.BluRay.x264-LameyHost.mkv
Format                      : Matroska
Format version              : Version 4 / Version 2
File size                   : 4.48 GiB
Duration                    : 1 h 24 min
Overall bit rate            : 7 574 kb/s
Movie name                  : MaximusQ8™
Encoded date                : UTC 2019-10-13 17:11:48
Writing application         : mkvmerge v38.0.0 ('The Silent Type') 64-bit
Writing library             : libebml v1.3.9 + libmatroska v1.5.2
Attachments                 : MaximusQ8™ Profile Picture.jpg

Video
ID                          : 1
Format                      : AVC
Format/Info                 : Advanced Video Codec
Format profile              : High@L4.1
Format settings             : CABAC / 4 Ref Frames
Format settings, CABAC      : Yes
Format settings, ReFrames   : 4 frames
Codec ID                    : V_MPEG4/ISO/AVC
Duration                    : 1 h 24 min
Bit rate                    : 5 873 kb/s
Width                       : 1 920 pixels
Height                      : 1 080 pixels
Display aspect ratio        : 16:9
Frame rate mode             : Constant
Frame rate                  : 23.976 FPS
Color space                 : YUV
Chroma subsampling          : 4:2:0
Bit depth                   : 8 bits
Scan type                   : Progressive
Bits/(Pixel*Frame)          : 0.118
Stream size                 : 3.47 GiB (77%)
Writing library             : x264 core 148 r2665 a01e339
Encoding settings           : cabac=1 / ref=4 / deblock=1:0:0 / *censored*yse=0x3:0x133 / me=umh / subme=7 / psy=1 / psy_rd=1.00:0.00 / mixed_ref=1 / me_range=16 / chroma_me=1 / trellis=1 / 8x8dct=1 / cqm=0 / deadzone=21,11 / fast_pskip=0 / chroma_qp_offset=-2 / threads=12 / lookahead_threads=2 / sliced_threads=0 / nr=0 / decimate=1 / interlaced=0 / bluray_compat=0 / constrained_intra=0 / bframes=3 / b_pyramid=2 / b_adapt=1 / b_bias=0 / direct=1 / weightb=1 / open_gop=0 / weightp=2 / keyint=250 / keyint_min=23 / scenecut=40 / intra_refresh=0 / rc_lookahead=40 / rc=2pass / mbtree=1 / bitrate=5873 / ratetol=1.0 / qcomp=0.60 / qpmin=0 / qpmax=69 / qpstep=4 / cplxblur=20.0 / qblur=0.5 / ip_ratio=1.40 / aq=1:1.00
Language                    : English
Default                     : Yes
Forced                      : No

Audio #1
ID                          : 2
Format                      : DTS
Format/Info                 : Digital Theater Systems
Codec ID                    : A_DTS
Duration                    : 1 h 24 min
Bit rate mode               : Constant
Bit rate                    : 1 509 kb/s
Channel(s)                  : 6 channels
Channel positions           : Front: L C R, Side: L R, LFE
Sampling rate               : 48.0 kHz
Frame rate                  : 93.750 FPS (512 SPF)
Bit depth                   : 24 bits
Compression mode            : Lossy
Stream size                 : 915 MiB (20%)
Language                    : English
Default                     : No
Forced                      : No

Audio #2
ID                          : 5
Format                      : AC-3
Format/Info                 : Audio Coding 3
Codec ID                    : A_AC3
Duration                    : 1 h 24 min
Bit rate mode               : Constant
Bit rate                    : 192 kb/s
Channel(s)                  : 2 channels
Channel positions           : Front: L R
Sampling rate               : 48.0 kHz
Frame rate                  : 31.250 FPS (1536 SPF)
Bit depth                   : 16 bits
Compression mode            : Lossy
Stream size                 : 116 MiB (3%)
Language                    : Arabic
Service kind                : Complete Main
Default                     : Yes
Forced                      : No

Text #1
ID                          : 3
Format                      : UTF-8
Codec ID                    : S_TEXT/UTF8
Codec ID/Info               : UTF-8 Plain Text
Duration                    : 1 min 45 s
Bit rate                    : 60 b/s
Count of elements           : 26
Stream size                 : 800 Bytes (0%)
Title                       : English-Forced
Language                    : English
Default                     : Yes
Forced                      : Yes

Text #2
ID                          : 4
Format                      : UTF-8
Codec ID                    : S_TEXT/UTF8
Codec ID/Info               : UTF-8 Plain Text
Duration                    : 1 h 19 min
Bit rate                    : 129 b/s
Count of elements           : 1132
Stream size                 : 75.3 KiB (0%)
Language                    : Arabic
Default                     : No
Forced                      : No



 2 arabp2p.com
 3 arabp2p.com
 4 arabp2p.com
 5 arabp2p.com
 6 arabp2p.com



الملفات ذات العلاقة بـ ( Open Season Scared Silly 2015 1080p BluRay x264 - LameyHost مدبلج للعربية )
Open Season: Scared Silly 2015 3 0 1.92 GB
Open Season Quadrilogy 1080p BluRay x264 DTS LameyHost رباعية موسم الصيد المفتوح مدبلج للعربية 4 1 21.22 GB
Angry Birds 2016 1080p BluRay x264 LameyHost الطيور الغاضبة الجزء الأول مدبلج للعربية 1 0 5.91 GB
The Angry Birds Movie 2 2019 1080p BluRay x264 LameyHost الطيور الغاضبة الجزء الثاني مدبلج للعربية 1 0 5.73 GB
Tinker Bell Hexalogy 1080p BluRay x264 LameyHost المجموعة الكاملة سبع افلام تنكر بيل "تنة ورنة" مدبلج للعربية 3 2 27.27 GB
LameyHostشكراً لكم جميعاً اسعدني مروركم
mohamed13300https://www9.0zz0.com/2019/08/19/21/148550907.gif
Maldinyشكرا يا ورد

الرئيسية - قائمة ملفات التورنت - فيسبوك